<?xml version="1.0" standalone="no"?>
<!DOCTYPE svg PUBLIC "-//W3C//DTD SVG 1.1//EN" "http://www.w3.org/Graphics/SVG/1.1/DTD/svg11.dtd" >
<svg xmlns="http://www.w3.org/2000/svg">
<defs>
  <font id="flaticon" horiz-adv-x="300">
    <font-face font-family="flaticon"
      units-per-em="300" ascent="300"
      descent="0" />
    <missing-glyph horiz-adv-x="0" />
    <glyph glyph-name="001-position"
      unicode="&#xF101;"
      horiz-adv-x="300" d="M256.06640625 256.06640625C227.7345703125 284.3970703125 190.06640625 300 150 300S72.2654296875 284.3970703125 43.93359375 256.06640625C15.6029296875 227.7345703125 0 190.06640625 0 150S15.6029296875 72.2654296875 43.93359375 43.93359375C72.2654296875 15.6029296875 109.93359375 0 150 0S227.7345703125 15.6029296875 256.06640625 43.93359375C284.3970703125 72.2654296875 300 109.93359375 300 150S284.3970703125 227.7345703125 256.06640625 256.06640625zM161.71875 23.984765625V54.4921875C161.71875 60.964453125 156.472265625 66.2109375 150 66.2109375S138.28125 60.964453125 138.28125 54.4921875V23.984765625C77.82890625 29.5623046875 29.5623046875 77.8283203125 23.9853515625 138.28125H54.4921875C60.964453125 138.28125 66.2109375 143.527734375 66.2109375 150S60.964453125 161.71875 54.4921875 161.71875H23.9853515625C29.5623046875 222.1716796875 77.82890625 270.4376953125 138.28125 276.015234375V245.5078125C138.28125 239.035546875 143.527734375 233.7890625 150 233.7890625S161.71875 239.035546875 161.71875 245.5078125V276.015234375C222.17109375 270.4376953125 270.4376953125 222.1716796875 276.0146484375 161.71875H245.5078125C239.035546875 161.71875 233.7890625 156.472265625 233.7890625 150S239.035546875 138.28125 245.5078125 138.28125H276.0146484375C270.4376953125 77.8283203125 222.17109375 29.5623046875 161.71875 23.984765625zM164.6484375 150C164.6484375 141.9099609375 158.0900390625 135.3515625 150 135.3515625S135.3515625 141.9099609375 135.3515625 150S141.9099609375 164.6484375 150 164.6484375S164.6484375 158.0900390625 164.6484375 150z" />
    <glyph glyph-name="002-previous-location"
      unicode="&#xF102;"
      horiz-adv-x="300" d="M196.2890625 231.4453125C176.90390625 231.4453125 161.1328125 215.67421875 161.1328125 196.2890625S176.90390625 161.1328125 196.2890625 161.1328125S231.4453125 176.90390625 231.4453125 196.2890625S215.67421875 231.4453125 196.2890625 231.4453125zM196.2890625 184.5703125C189.82734375 184.5703125 184.5703125 189.82734375 184.5703125 196.2890625S189.82734375 208.0078125 196.2890625 208.0078125S208.0078125 202.75078125 208.0078125 196.2890625S202.7513671875 184.5703125 196.2890625 184.5703125zM196.2890625 300C140.87109375 300 95.466796875 256.3083984375 92.7111328125 201.5625H40.0107421875L72.7400390625 234.291796875C77.316796875 238.8685546875 77.316796875 246.28828125 72.7400390625 250.864453125S60.74296875 255.4412109375 56.166796875 250.864453125L3.432421875 198.130078125C-1.1443359375 193.5533203125 -1.1443359375 186.13359375 3.432421875 181.557421875L56.166796875 128.823046875C58.4548828125 126.534375 61.454296875 125.390625 64.453125 125.390625S70.4513671875 126.5349609375 72.7400390625 128.823046875C77.316796875 133.3998046875 77.316796875 140.81953125 72.7400390625 145.395703125L40.0107421875 178.125H93.5888671875C95.5306640625 160.3037109375 100.2755859375 141.7833984375 107.775 122.84296875C115.714453125 102.793359375 126.74765625 82.2046875 140.56875 61.6494140625C163.98515625 26.8224609375 187.1630859375 4.243359375 188.138671875 3.2994140625C190.409765625 1.0998046875 193.35 0 196.2890625 0S202.168359375 1.0998046875 204.4400390625 3.2994140625C205.415625 4.243359375 228.5935546875 26.823046875 252.0099609375001 61.6494140625C265.8310546875001 82.2046875 276.8642578125001 102.793359375 284.8037109375001 122.84296875C294.8871093750001 148.3095703125 300.0000000000001 173.0203125 300.0000000000001 196.2890625C300.0000000000001 253.475390625 253.4753906250001 300 196.2890625000001 300zM232.8369140625 75.13828125C218.907421875 54.3615234375 204.8314453125 37.97578125 196.2943359375 28.667578125C174.4078125 52.5662109375 116.015625 123.1875 116.015625 196.2890625C116.015625 240.551953125 152.026171875 276.5625 196.2890625 276.5625S276.5625 240.551953125 276.5625 196.2890625C276.5625 150.062109375 252.783984375 104.891015625 232.8369140625 75.13828125z" />
    <glyph glyph-name="003-east"
      unicode="&#xF103;"
      horiz-adv-x="300" d="M283.709765625 159.2794921875L104.412890625 297.5607421875C100.3810546875 300.6703125 94.8029296875 300.8208984375 90.6099609375 297.9328125C86.41640625 295.0453125 84.5671875 289.7806640625 86.034375 284.905078125L126.6205078125 150L86.034375 15.094921875C84.5677734375 10.219921875 86.41640625 4.9546875 90.6099609375 2.0671875C92.615625 0.68671875 94.937109375 0.0005859375 97.255078125 0.0005859375C99.783984375 0.0005859375 102.309375 0.81796875 104.412890625 2.43984375L283.709765625 140.72109375C286.58671875 142.939453125 288.271875 146.3677734375 288.271875 150.0005859375C288.271875 153.6328125 286.58671875 157.060546875 283.709765625 159.2794921875001zM118.988671875 43.278515625L150.0796875 146.623828125C150.7423828125 148.82578125 150.7423828125 151.17421875 150.0796875 153.3755859375L118.988671875 256.7208984375L257.3642578125 150zM35.18203125 178.7109375L35.1779296875 160.546875H70.9078125C77.380078125 160.546875 82.6265625 155.300390625 82.6265625 148.828125S77.380078125 137.109375 70.9078125 137.109375H35.1720703125L35.16796875 120.1171875H70.9078125C77.380078125 120.1171875 82.6265625 114.870703125 82.6265625 108.3984375S77.380078125 96.6796875 70.9078125 96.6796875H23.446875C20.3384765625 96.6796875 17.3572265625 97.9142578125 15.159375 100.1126953125S11.7275390625 105.2923828125 11.728125 108.4013671875C11.728125 108.4013671875 11.728125 190.205859375 11.728125 190.4296875C11.728125 196.901953125 16.974609375 202.1484375 23.446875 202.1484375H70.9078125C77.380078125 202.1484375 82.6265625 196.901953125 82.6265625 190.4296875S77.380078125 178.7109375 70.9078125 178.7109375z" />
    <glyph glyph-name="004-south"
      unicode="&#xF104;"
      horiz-adv-x="300" d="M150 0.009375C146.3671875 0.009375 142.9388671875 1.69453125 140.7205078125 4.571484375L2.4392578125 183.868359375C-0.6703125 187.9001953125 -0.8203125 193.4783203125 2.0666015625 197.6712890625C4.9546875 201.86484375 10.219921875 203.7146484375 15.0943359375 202.246875L150 161.6607421875L284.905078125 202.246875C289.7806640625 203.712890625 295.0458984375 201.86484375 297.9328125 197.6712890625C300.8203125 193.4783203125 300.6697265625001 187.9001953125 297.56015625 183.868359375L159.27890625 4.571484375C157.0611328125 1.69453125 153.6328125 0.009375 150 0.009375zM43.278515625 169.292578125L150 30.9169921875L256.7214843750001 169.292578125L153.3761718750001 138.2015625C151.1742187500001 137.5388671875001 148.82578125 137.5388671875001 146.6244140625 138.2015625zM185.15625 217.959375C185.15625 237.34453125 169.38515625 253.115625 150 253.115625C143.53828125 253.115625 138.28125 258.3726562500001 138.28125 264.834375S143.53828125 276.553125 150 276.553125C154.653515625 276.553125 159.2080078125 273.7798828125001 161.0748046875 269.808984375C163.828125 263.9519531250001 170.8083984375 261.4365234375 176.666015625 264.1904296875C182.5224609375 266.9443359375 185.037890625 273.9251953125 182.283984375 279.781640625C176.5119140625 292.0582031250001 163.83984375 299.990625 150 299.990625C130.61484375 299.990625 114.84375 284.2195312500001 114.84375 264.834375S130.61484375 229.678125 150 229.678125C156.46171875 229.678125 161.71875 224.42109375 161.71875 217.959375S156.46171875 206.240625 150 206.240625C145.294921875 206.240625 140.8974609375 209.068359375 139.0587890625 213.2765625C136.4671875 219.2068359375001 129.5607421875 221.914453125 123.628125 219.3228515625C117.697265625 216.7318359375 114.9908203125 209.8230468750001 117.5818359375 203.8927734375C123.1798828125 191.0818359375 135.9046875 182.8037109375 150 182.8037109375C169.38515625 182.803125 185.15625 198.57421875 185.15625 217.959375z" />
    <glyph glyph-name="005-west"
      unicode="&#xF105;"
      horiz-adv-x="300" d="M161.6689453125 150L202.255078125 284.905078125C203.7216796875 289.7806640625 201.873046875 295.0453125 197.6794921875 297.9328125S187.9083984375 300.6697265625 183.8765625 297.5607421875L4.5796875 159.2794921875C1.702734375 157.0611328125 0.017578125 153.6333984375 0.017578125 150S1.702734375 142.939453125 4.5796875 140.7205078125L183.8765625 2.4392578125C185.980078125 0.816796875 188.5048828125 0 191.034375 0C193.35234375 0 195.6744140625 0.6861328125 197.6794921875 2.0671875C201.873046875 4.9546875 203.722265625 10.2193359375 202.255078125 15.094921875zM30.9251953125 150L169.30078125 256.721484375L138.209765625 153.376171875C137.5470703125 151.17421875 137.5470703125 148.82578125 138.209765625 146.6244140625L169.30078125 43.2791015625zM299.719921875 187.974609375L282.141796875 105.943359375C281.0677734375 100.9318359375 276.8619140625001 97.1994140625 271.7578125000001 96.7294921875C271.3962890625001 96.69609375 271.0359375000001 96.6796875 270.6779296875 96.6796875C265.9857421875 96.6796875 261.6972656250001 99.495703125 259.865625 103.89140625L247.2457031250001 134.1796875L234.6251953125001 103.89140625C232.6541015625001 99.160546875 227.8376953125001 96.2583984375 222.7330078125001 96.7294921875C217.6294921875001 97.1994140625 213.4230468750001 100.9318359375 212.3490234375001 105.943359375L194.7708984375001 187.974609375C193.4150390625001 194.302734375 197.4457031250001 200.532421875 203.7744140625001 201.8888671875C210.1025390625001 203.244140625 216.3328125000001 199.2134765625 217.6886718750001 192.8853515625L227.4111328125001 147.514453125L236.4287109375001 169.1560546875C238.2480468750001 173.523046875 242.5142578125001 176.3671875 247.2457031250001 176.3671875S256.2433593750001 173.523046875 258.0626953125001 169.15546875L267.0802734375001 147.5138671875001L276.8027343750001 192.884765625C278.1585937500001 199.2134765625 284.3894531250001 203.2453125 290.7169921875001 201.88828125C297.0451171875001 200.532421875 301.0757812500001 194.302734375 299.7199218750001 187.974609375z" />
    <glyph glyph-name="006-north"
      unicode="&#xF106;"
      horiz-adv-x="300" d="M288.2806640625 97.25625C287.1568359375001 97.25625 286.0212890625001 97.41796875 284.905078125 97.7537109375L150 138.3392578125L15.094921875 97.7537109375C10.219921875 96.2876953125 4.9546875 98.1357421875 2.0671875 102.3298828125C-0.8203125 106.5228515625 -0.6697265625 112.1015625 2.43984375 116.1328125L140.72109375 295.4296875C142.939453125 298.306640625 146.3677734375 299.991796875 150.0005859375 299.991796875S157.06171875 298.306640625 159.280078125 295.4296875L297.561328125 116.1328125C300.6708984375 112.1015625 300.821484375 106.5234375 297.933984375 102.3298828125C295.70625 99.09609375 292.0658203125 97.25625 288.2806640625 97.25625zM150 162.2958984375C151.1373046875 162.2958984375 152.2751953125 162.1306640625 153.376171875 161.7990234375L256.7214843750001 130.707421875L150 269.08359375L43.278515625 130.7080078125L146.623828125 161.799609375C147.7248046875 162.1306640625 148.8626953125 162.2958984375 150 162.2958984375zM176.445703125 0.4025390625C181.5814453125 1.7666015625 185.15625 6.4154296875 185.15625 11.7287109375V93.7599609375C185.15625 100.2322265625 179.909765625 105.4787109375 173.4375 105.4787109375S161.71875 100.2322265625 161.71875 93.7599609375V55.8568359375L136.7373046875 99.57421875C134.1005859375 104.187890625 128.6900390625 106.4490234375 123.554296875 105.0861328125C118.4185546875 103.7220703125 114.84375 99.0732421875 114.84375 93.7599609375V11.7287109375C114.84375 5.2564453125 120.090234375 0.0099609375 126.5625 0.0099609375S138.28125 5.2564453125 138.28125 11.7287109375V49.6318359375L163.2626953125 5.914453125C165.3861328125 2.1990234375 169.3078125 0.0087890625 173.436328125 0.0087890625C174.434765625 0.0087890625 175.4455078125 0.137109375 176.445703125 0.4025390625z" />
    <glyph glyph-name="007-pointer"
      unicode="&#xF107;"
      horiz-adv-x="300" d="M231.4453125 213.8671875C231.4453125 204.1587890625 223.5755859375 196.2890625 213.8671875 196.2890625S196.2890625 204.1587890625 196.2890625 213.8671875S204.1587890625 231.4453125 213.8671875 231.4453125S231.4453125 223.5755859375 231.4453125 213.8671875zM300 213.8671875C300 194.7580078125 295.8099609375 174.51328125 287.5458984375 153.69609375C281.0625 137.363671875 272.058984375 120.6181640625 260.7861328125 103.9236328125C241.707421875 75.6703125 222.7869140625 57.35859375 221.990625 56.593359375C219.723046875 54.411328125 216.7951171875 53.3203125 213.8671875 53.3203125C210.9568359375 53.3203125 208.046484375 54.3984375 205.7830078125 56.5552734375C204.6896484375 57.5970703125 183.25546875 78.1962890625 163.0921875 109.5890625C156.5501953125 90.5671875 146.5318359375 70.9640625 133.0681640625 50.919140625C113.99765625 22.5275390625 95.0865234375 4.076953125 94.2908203125 3.3046875C92.0185546875 1.1009765625 89.0759765625 -0.001171875 86.1333984375 -0.001171875S80.2482421875 1.1009765625 77.9759765625 3.3046875C77.1802734375 4.0763671875 58.269140625 22.5275390625 39.1986328125 50.919140625C13.18828125 89.6419921875 0 126.723046875 0 161.1328125C0 208.6265625 38.6390625 247.2656250000001 86.1328125 247.2656250000001C102.294140625 247.2656250000001 117.4271484375 242.7878906250001 130.3640625 235.0136718750001C139.815234375 272.316796875 173.6677734375 300.0000000000001 213.8671875 300.0000000000001C261.3609375 300.0000000000001 300 261.3609375000001 300 213.8671875zM148.828125 161.1328125C148.828125 195.703125 120.703125 223.828125 86.1328125 223.828125S23.4375 195.703125 23.4375 161.1328125C23.4375 104.64140625 67.4953125 49.5615234375 86.1328125 28.7923828125C104.7650390625 49.555078125 148.828125 104.63671875 148.828125 161.1328125zM276.5625 213.8671875C276.5625 248.4375 248.4375 276.5625 213.8671875 276.5625C180.4904296875 276.5625 153.125390625 250.3453125 151.275 217.423828125C164.347265625 202.316015625 172.265625 182.63203125 172.265625 161.1328125C172.265625 155.02265625 171.84140625 148.8263671875 171.01171875 142.5533203125C171.01875 142.5404296875 171.026953125 142.5287109375 171.033984375 142.5158203125C185.145703125 115.37578125 203.4509765625 93.39609375 213.830859375 82.0037109375C232.4138671875 102.5513671875 276.5625000000001 157.325390625 276.5625000000001 213.8671875zM86.1328125 178.7109375C76.4244140625 178.7109375 68.5546875 170.8412109375 68.5546875 161.1328125S76.4244140625 143.5546875 86.1328125 143.5546875S103.7109375 151.4244140625 103.7109375 161.1328125S95.8412109375 178.7109375 86.1328125 178.7109375z" />
    <glyph glyph-name="008-share"
      unicode="&#xF108;"
      horiz-adv-x="300" d="M225 125A49.9 49.9 0 0 1 182.9625 101.8375L122.15 134.0375A46.0875 46.0875 0 0 1 122.15 165.9625L182.9625 198.15A49.825 49.825 0 1 1 175 225C175 224.1 175.2125 223.2625 175.2625 222.375L108.375 186.9625A50 50 0 1 1 108.375 113.05L175.2625 77.6375C175.2625 76.75 175 75.9125 175 75.0125A50 50 0 1 1 225 125zM225 250A25 25 0 1 0 200 225A25 25 0 0 0 225 250zM75 125A25 25 0 1 0 100 150A25 25 0 0 0 75 125zM225 50A25 25 0 1 0 250 75A25 25 0 0 0 225 50z" />
    <glyph glyph-name="009-home"
      unicode="&#xF109;"
      horiz-adv-x="300" d="M258.4125 208.8375L170.9125 268.5A36.8875 36.8875 0 0 1 129.0875 268.5L41.5875 208.8375A38.1625 38.1625 0 0 1 25 177.2375V63.075A37.825 37.825 0 0 1 62.5 25H237.5A37.825 37.825 0 0 1 275 63.075V177.2375A38.1625 38.1625 0 0 1 258.4125 208.8375zM125 50V112.5H175V50zM250 63.075A12.8125 12.8125 0 0 0 237.5 50H200V125A12.5 12.5 0 0 1 187.5 137.5H112.5A12.5 12.5 0 0 1 100 125V50H62.5A12.8125 12.8125 0 0 0 50 63.075V177.2375A13.2 13.2 0 0 0 55.675 188.1875L143.175 247.85A12.025 12.025 0 0 0 156.825 247.85L244.325 188.1875A13.2 13.2 0 0 0 250 177.2375z" />
    <glyph glyph-name="010-smile"
      unicode="&#xF10A;"
      horiz-adv-x="300" d="M150 275A125 125 0 1 1 275 150A125.1375 125.1375 0 0 1 150 275zM150 50A100 100 0 1 0 250 150A100.1125 100.1125 0 0 0 150 50zM179.4375 122.0625A50.125 50.125 0 0 0 150 112.5A50.7625 50.7625 0 0 0 120.4875 122.125A12.5 12.5 0 0 1 104.45 102.9375A75 75 0 0 1 195.5625 102.9375A12.5 12.5 0 0 1 179.4375 122.0625zM100 181.25A18.75 18.75 0 0 1 137.5 181.25A18.75 18.75 0 0 1 100 181.25M162.5 181.25A18.75 18.75 0 0 1 200 181.25A18.75 18.75 0 0 1 162.5 181.25" />
    <glyph glyph-name="011-sad"
      unicode="&#xF10B;"
      horiz-adv-x="300" d="M150 275A125 125 0 1 1 275 150A125.1375 125.1375 0 0 1 150 275zM150 50A100 100 0 1 0 250 150A100.1125 100.1125 0 0 0 150 50zM150 125A75.4875 75.4875 0 0 1 104.4375 109.5625A12.5 12.5 0 0 1 120.55 90.4375A50.125 50.125 0 0 0 150 100A50.7625 50.7625 0 0 0 179.5125 90.375A12.5 12.5 0 0 1 195.55 109.5625A75.4875 75.4875 0 0 1 150 125zM100 181.25A18.75 18.75 0 0 1 137.5 181.25A18.75 18.75 0 0 1 100 181.25M162.5 181.25A18.75 18.75 0 0 1 200 181.25A18.75 18.75 0 0 1 162.5 181.25" />
    <glyph glyph-name="012-camera"
      unicode="&#xF10C;"
      horiz-adv-x="300" d="M237.5 250H222.85A12.6125 12.6125 0 0 0 214.0125 253.6625L203.6625 264.0125A37.25 37.25 0 0 1 177.15 275H122.85A37.25 37.25 0 0 1 96.3375 264.0125L85.9875 253.6625A12.6125 12.6125 0 0 0 77.15 250H62.5A37.5 37.5 0 0 1 25 212.5V62.5A37.5 37.5 0 0 1 62.5 25H237.5000000000001A37.5 37.5 0 0 1 275 62.5V212.5A37.5 37.5 0 0 1 237.5000000000001 250zM250 62.5A12.5 12.5 0 0 0 237.5 50H62.5A12.5 12.5 0 0 0 50 62.5V212.5A12.5 12.5 0 0 0 62.5 225H77.15A37.25 37.25 0 0 1 103.6625 235.9875L114.0125 246.3375A12.6125 12.6125 0 0 0 122.85 250H177.15A12.6125 12.6125 0 0 0 185.9875 246.3375L196.3375 235.9875A37.25 37.25 0 0 1 222.85 225H237.5A12.5 12.5 0 0 0 250 212.5zM150 200A62.5 62.5 0 1 1 212.5 137.5A62.575 62.575 0 0 1 150 200zM150 100A37.5 37.5 0 1 0 187.5 137.5A37.5 37.5 0 0 0 150 100z" />
    <glyph glyph-name="013-info"
      unicode="&#xF10D;"
      horiz-adv-x="300" d="M150 275A125 125 0 1 1 275 150A125.1375 125.1375 0 0 1 150 275zM150 50A100 100 0 1 0 250 150A100.1125 100.1125 0 0 0 150 50zM150 225A12.5 12.5 0 0 1 137.5 212.5V125A12.5 12.5 0 0 1 162.5 125V212.5A12.5 12.5 0 0 1 150 225zM137.5 87.5A12.5 12.5 0 0 1 162.5 87.5A12.5 12.5 0 0 1 137.5 87.5" />
    <glyph glyph-name="014-call"
      unicode="&#xF10E;"
      horiz-adv-x="300" d="M268.0875 98.6875L218.0875 123.6875A12.5 12.5 0 0 1 203.6625 121.3375L182.725 100.4C152.6375 105.2375 105.225 152.6375 100.4 182.725L121.3375 203.6625A12.5 12.5 0 0 1 123.6875 218.0875L98.6875 268.0875A12.5 12.5 0 0 1 80 272.5L30 235A12.5 12.5 0 0 1 25 225C25 105.375 105.375 25 225 25A12.5 12.5 0 0 1 235 30L272.5 80A12.5 12.5 0 0 1 268.0875 98.6875zM218.75 50.0875C119.6125 52.75 52.75 119.6125 50.0875 218.75L83.025 243.5125L97.2874999999999 215L78.6625 196.375A12.5 12.5 0 0 1 74.9999999999999 187.5C74.9999999999999 143.3375 143.3375 75 187.5 75A12.5 12.5 0 0 1 196.3375 78.6625L214.9625 97.2875L243.5125 83.0125000000001zM168.75 250A81.35 81.35 0 0 0 250 168.75A12.5 12.5 0 0 1 275 168.75A106.375 106.375 0 0 1 168.75 275A12.5 12.5 0 0 1 168.75 250zM168.75 200A31.25 31.25 0 0 0 200 168.75A12.5 12.5 0 0 1 225 168.75A56.25 56.25 0 0 1 168.75 225A12.5 12.5 0 0 1 168.75 200z" />
    <glyph glyph-name="015-live-streaming"
      unicode="&#xF10F;"
      horiz-adv-x="300" d="M269.5125 172.85A12.5 12.5 0 0 1 257.8625 174.1L211.925 155.725A37.5 37.5 0 0 1 175 187.5H62.5A37.5 37.5 0 0 1 25 150V62.5A37.5 37.5 0 0 1 62.5 25H175A37.5 37.5 0 0 1 211.925 56.7625L257.8625 38.3875A12.5 12.5 0 0 1 275 50V162.5A12.5 12.5 0 0 1 269.5125 172.85zM175 50H62.5A12.5 12.5 0 0 0 50 62.5V150A12.5 12.5 0 0 0 62.5 162.5H175A12.5 12.5 0 0 0 187.5 150V62.5A12.5 12.5 0 0 0 175 50zM250 68.4625L212.5 83.4625000000001V129.0375L250 144.0375000000001V68.4500000000001zM77.5 233.2A58.925 58.925 0 0 0 160 233.2A12.5 12.5 0 0 1 177.5 251.0125A84.0125 84.0125 0 0 1 60 251.0125A12.5 12.5 0 0 1 77.5 233.2zM90 221.4125A12.5 12.5 0 1 1 107.5 203.6A16.0375 16.0375 0 0 0 130 203.6A12.5 12.5 0 1 1 147.5 221.4125A41.125 41.125 0 0 1 90 221.4125z" />
    <glyph glyph-name="016-mail"
      unicode="&#xF110;"
      horiz-adv-x="300" d="M237.5 250H62.5A37.5 37.5 0 0 1 25 212.5V87.5A37.5 37.5 0 0 1 62.5 50H237.5A37.5 37.5 0 0 1 275 87.5V212.5A37.5 37.5 0 0 1 237.5 250zM230.3375 225L157.5 165A12.425 12.425 0 0 0 142.9375 164.65L69.6625 225zM237.5 75H62.5A12.5 12.5 0 0 0 50 87.5V208.75L127.5 145A37.15 37.15 0 0 1 149.85 137.5875A38.425 38.425 0 0 1 172.95 145.35L250 208.75V87.5A12.5 12.5 0 0 0 237.5 75z" />
    <glyph glyph-name="017-hastag"
      unicode="&#xF111;"
      horiz-adv-x="300" d="M262.5 112.5H212.675L225.175 187.5H262.5A12.5 12.5 0 0 1 262.5 212.5H229.3375L237.325 260.4375A12.5 12.5 0 0 1 212.6625 264.55L204 212.5H116.8375L124.825 260.4375A12.5 12.5 0 0 1 100.1625 264.55L91.5 212.5H37.5A12.5 12.5 0 0 1 37.5 187.5H87.3250000000001L74.8250000000001 112.5H37.5A12.5 12.5 0 0 1 37.5 87.5H70.6625000000001L62.675 39.5625A12.5 12.5 0 1 1 87.3375 35.45L96 87.5H183.15L175.1625 39.5625A12.5 12.5 0 1 1 199.825 35.45L208.5 87.5H262.5A12.5 12.5 0 0 1 262.5 112.5zM100.175 112.5L112.675 187.5H199.8375L187.3375 112.5z" />
    <glyph glyph-name="018-send"
      unicode="&#xF112;"
      horiz-adv-x="300" d="M271.3375000000001 271.3375A12.5 12.5 0 0 1 257.975 274.15L32.975 186.65A12.5 12.5 0 0 1 33.1125 163.3L127.7875 127.8L163.2875 33.1125A12.5 12.5 0 0 1 174.925 25.0125H175A12.5 12.5 0 0 1 186.65 32.9875L274.15 257.9875A12.5 12.5 0 0 1 271.3374999999999 271.3375000000001zM175.2125 72.5875L152.0375 134.4125L183.8375 166.2125A12.5 12.5 0 0 1 166.1625 183.8875L134.35 152.075L72.5 175.2125L240.55 240.55z" />
    <glyph glyph-name="019-group"
      unicode="&#xF113;"
      horiz-adv-x="300" d="M112.5 150A87.6 87.6 0 0 1 25 62.5V37.5A12.5 12.5 0 0 1 37.5 25H187.5A12.5 12.5 0 0 1 200 37.5V62.5A87.6 87.6 0 0 1 112.5 150zM175 50H50V62.5A62.5 62.5 0 0 0 175 62.5zM212.5 162.5A62.5 62.5 0 0 1 181.25 154.1375A12.5 12.5 0 1 1 193.75 132.5A37.5 37.5 0 0 0 250 100V87.5H225A12.5 12.5 0 0 1 225 62.5H262.5A12.5 12.5 0 0 1 275 75V100A62.575 62.575 0 0 1 212.5 162.5zM212.5 175A37.5 37.5 0 0 1 250 212.5V225A37.5 37.5 0 0 1 175 225V212.5A37.5 37.5 0 0 1 212.5 175zM200 225A12.5 12.5 0 0 0 225 225V212.5A12.5 12.5 0 0 0 200 212.5zM112.5 162.5A50 50 0 0 1 162.5 212.5V225A50 50 0 0 1 62.5 225V212.5A50 50 0 0 1 112.5 162.5zM87.5 225A25 25 0 0 0 137.5 225V212.5A25 25 0 0 0 87.5 212.5z" />
    <glyph glyph-name="020-guidebook"
      unicode="&#xF114;"
      horiz-adv-x="300" d="M87.5 75H212.5A37.5 37.5 0 0 1 250 112.5V237.5A37.5 37.5 0 0 1 212.5 275H87.5A37.5 37.5 0 0 1 50 237.5V62.5A37.5 37.5 0 0 1 87.5 25H237.5A12.5 12.5 0 0 1 237.5 50H87.5A12.5 12.5 0 0 0 87.5 75zM75 237.5A12.5 12.5 0 0 0 87.5 250H212.5A12.5 12.5 0 0 0 225 237.5V112.5A12.5 12.5 0 0 0 212.5 100H87.5A37.5 37.5 0 0 1 75 97.8625zM150 125A12.5 12.5 0 0 1 162.5 137.5V175A12.5 12.5 0 0 1 137.5 175V137.5A12.5 12.5 0 0 1 150 125zM137.5 212.5A12.5 12.5 0 0 1 162.5 212.5A12.5 12.5 0 0 1 137.5 212.5" />
    <glyph glyph-name="021-memories"
      unicode="&#xF115;"
      horiz-adv-x="300" d="M150 275A125.1375 125.1375 0 0 1 25 150A12.5 12.5 0 0 1 44.4375 139.6L81.9375 164.6A12.5 12.5 0 1 1 68.0625 185.4L53.3 175.5625A100 100 0 1 0 55.675 116.6625A12.5 12.5 0 0 1 32.1 108.3375A125 125 0 1 1 150 275zM150 225A12.5 12.5 0 0 1 137.5 212.5V150A12.5 12.5 0 0 1 141.1625 141.1625L178.6625 103.6625A12.5 12.5 0 0 1 196.3375 121.3375L162.5 155.175V212.5A12.5 12.5 0 0 1 150 225z" />
    <glyph glyph-name="022-link"
      unicode="&#xF116;"
      horiz-adv-x="300" d="M103.6625 103.6625A12.5 12.5 0 0 1 121.3375 103.6625L196.3375 178.6625A12.5 12.5 0 0 1 178.6625 196.3375L103.6625 121.3375A12.5 12.5 0 0 1 103.6625 103.6625zM153.6625 101.3375L113.1625 60.825A37.8375 37.8375 0 0 0 60.825 60.825A36.975 36.975 0 0 0 60.825 113.1125L101.325 153.625A12.5 12.5 0 0 1 83.65 171.3L43.15 130.7875A62 62 0 0 1 130.8375 43.1125L171.3375 83.6249999999999A12.5 12.5 0 0 1 153.6625 101.3375zM256.8 256.85A61.9625 61.9625 0 0 1 169.1625 256.85L128.6625 216.3375A12.5 12.5 0 0 1 146.3375 198.6625L186.8375 239.175A37.8375 37.8375 0 0 0 239.175 239.175A36.975 36.975 0 0 0 239.175 186.8875L198.675 146.375A12.5 12.5 0 1 1 216.35 128.7000000000001L256.85 169.2125000000001A61.95 61.95 0 0 1 256.8 256.85z" />
    <glyph glyph-name="023-setting"
      unicode="&#xF117;"
      horiz-adv-x="300" d="M268.6375 126.25L264.5 128.625A24.525 24.525 0 0 0 252 149.975A24.525 24.525 0 0 0 264.5 171.3250000000001L268.6375 173.6625A12.5 12.5 0 0 1 273.2625 190.9125L247.675 234.2625A12.5 12.5 0 0 1 230.7625 238.75L226.25 236.2500000000001A25.8375 25.8375 0 0 0 188.05 258.5875000000001V262.5A12.5 12.5 0 0 1 175.55 275H124.4125A12.5 12.5 0 0 1 111.9125 262.5V258.5625A25.2 25.2 0 0 0 99.225 236.7A26.55 26.55 0 0 0 73.075 236.6250000000001L69.2375 238.75A12.5 12.5 0 0 1 52.3125 234.225L26.7375 190.95A12.5 12.5 0 0 1 31.3625 173.7L35.5 171.375A24.575 24.575 0 0 0 35.5 128.625L31.3625 126.25A12.5 12.5 0 0 1 26.7375 109L52.325 65.6875A12.5 12.5 0 0 1 69.25 61.25L73.45 63.625A25.8375 25.8375 0 0 0 111.9125 41V37.5A12.5 12.5 0 0 1 124.4125 25H175.5875A12.5 12.5 0 0 1 188.0875 37.5V41.0625A25.825 25.825 0 0 0 226.6 63.5625L230.7750000000001 61.25A12.5 12.5 0 0 1 247.6875000000001 65.775L273.2750000000001 109.0875A12.5 12.5 0 0 1 268.6375 126.25zM245.575 111.25L232.1 88.4375A50.8125 50.8125 0 0 1 163.875 50H136.1125A50.8125 50.8125 0 0 1 67.9 88.525L54.425 111.3375A49.5875 49.5875 0 0 1 54.425 188.6625L67.925 211.525A51.85 51.85 0 0 1 111.625 215A50.3 50.3 0 0 1 136.1875 250H163.8375A50.7375 50.7375 0 0 1 188.925 214.675A50.375 50.375 0 0 1 232.1375 211.4375L245.5875 188.6625A49.5875 49.5875 0 0 1 245.575 111.3375zM150 200A50 50 0 1 1 200 150A50 50 0 0 1 150 200zM150 125A25 25 0 1 0 175 150A25 25 0 0 0 150 125z" />
    <glyph glyph-name="024-map"
      unicode="&#xF118;"
      horiz-adv-x="300" d="M150 275A100.1125 100.1125 0 0 1 50 175C50 123.1375 115.4125 25 150 25S250 123.1375 250 175A100.1125 100.1125 0 0 1 150 275zM150.1625 50C133.0625 52.1375 75 131.075 75 175A75 75 0 0 0 225 175C225 131.075 166.9375 52.1375 150.1625 50zM150 212.5A37.5 37.5 0 1 1 187.5 175A37.5 37.5 0 0 1 150 212.5zM150 162.5A12.5 12.5 0 1 0 162.5 175A12.5 12.5 0 0 0 150 162.5z" />
    <glyph glyph-name="025-starred"
      unicode="&#xF119;"
      horiz-adv-x="300" d="M225 125A12.5 12.5 0 0 1 212.5 112.5V100.0000000000001A12.5 12.5 0 0 0 200 87.5000000000001H95.8375A37.6875 37.6875 0 0 1 73.3375 80.0000000000001L50 62.5000000000001V200.0000000000001A12.5 12.5 0 0 0 62.5 212.5000000000001H112.5A12.5 12.5 0 0 1 112.5 237.5000000000001H62.5A37.5 37.5 0 0 1 25 200.0000000000001V37.5000000000001A12.5 12.5 0 0 1 45 27.5000000000001L88.3375 60.0000000000001A12.6 12.6 0 0 0 95.8375 62.5000000000001H200A37.5 37.5 0 0 1 237.5000000000001 100.0000000000001V112.5A12.5 12.5 0 0 1 225 125zM274.35 223.5A12.5 12.5 0 0 1 264.35 231.8875L232.075 236.825L217.5625 267.8125A12.5 12.5 0 0 1 194.925 267.8125L180.3875 236.8125L148.1125 231.875A12.5 12.5 0 0 1 141.05 210.7875L164.8 186.475L159.175 152A12.5 12.5 0 0 1 177.5 139.0625L206.25 154.9375L235 139.0625A12.5 12.5 0 0 1 253.3875 152.0125L247.7625 186.4875L271.5125 210.8A12.5 12.5 0 0 1 274.35 223.5zM225.425 199.425A12.5 12.5 0 0 1 222.0375 188.6875L224.5375 173.3875L212.3 180.15A12.5 12.5 0 0 1 200.2 180.15L187.9625 173.3875L190.4625 188.6875A12.5 12.5 0 0 1 187.075 199.425L175.9375 210.8375L190.7625 213.1125A12.5 12.5 0 0 1 200.1875 220.15L206.25 233.075L212.3125 220.15A12.5 12.5 0 0 1 221.7375 213.1125L236.5625 210.8375z" />
    <glyph glyph-name="026-star"
      unicode="&#xF11A;"
      horiz-adv-x="300" d="M274.35 180.525A12.5 12.5 0 0 1 264.35 188.9125L193.25 199.775L161.3125 267.8125A12.5 12.5 0 0 1 138.675 267.8125L106.75 199.775L35.6125 188.9125A12.5 12.5 0 0 1 28.55 167.825L80.3875 114.7L68.1375 39.5125A12.5 12.5 0 0 1 86.525 26.5625L150 61.65L213.4875 26.5625A12.5 12.5 0 0 1 231.875 39.5125L219.6125 114.7L271.45 167.825A12.5 12.5 0 0 1 274.35 180.525zM197.3 127.6375A12.5 12.5 0 0 1 193.9125 116.9L203.05 60.9L156.05 86.875A12.5 12.5 0 0 1 143.95 86.875L96.95 60.9L106.0875 116.9A12.5 12.5 0 0 1 102.7 127.6375L63.4375 167.875L117.125 176.075A12.5 12.5 0 0 1 126.55 183.125L150 233.125L173.45 183.125A12.5 12.5 0 0 1 182.875 176.075L236.5625 167.875z" />
    <glyph glyph-name="027-tag"
      unicode="&#xF11B;"
      horiz-adv-x="300" d="M236.25 275H168.525A38.45 38.45 0 0 1 141.1625 263.6625L36.3375 158.8375A38.75 38.75 0 0 1 36.3375 104.1L104.0875 36.3375A38.75 38.75 0 0 1 158.8375 36.3375L263.6625 141.1625A38.45 38.45 0 0 1 275 168.525V236.2500000000001A38.75 38.75 0 0 1 236.25 275zM250 168.525A13.625 13.625 0 0 0 245.9875 158.8375L141.15 54.0125A14.025 14.025 0 0 0 121.775 54.0125L54.0125 121.7875A13.675 13.675 0 0 0 54.0125 141.15L158.8375 245.975A13.625 13.625 0 0 0 168.5249999999999 250.0000000000001H236.2499999999999A13.75 13.75 0 0 0 249.9999999999999 236.2500000000001V168.4875zM200 237.5A37.5 37.5 0 1 1 237.5 200A37.5 37.5 0 0 1 200 237.5zM200 187.5A12.5 12.5 0 1 0 212.5 200A12.5 12.5 0 0 0 200 187.5z" />
    <glyph glyph-name="028-video-call"
      unicode="&#xF11C;"
      horiz-adv-x="300" d="M269.5125 222.85A12.5 12.5 0 0 1 257.8625 224.1L211.925 205.725A37.5 37.5 0 0 1 175 237.5H62.5A37.5 37.5 0 0 1 25 200V100A37.5 37.5 0 0 1 62.5 62.5H175A37.5 37.5 0 0 1 211.925 94.2625L257.8625 75.8875A12.5 12.5 0 0 1 275 87.4999999999999V212.5A12.5 12.5 0 0 1 269.5125 222.8499999999999zM175 87.5H62.5A12.5 12.5 0 0 0 50 100V200A12.5 12.5 0 0 0 62.5 212.5H175A12.5 12.5 0 0 0 187.5 200V100A12.5 12.5 0 0 0 175 87.5zM250 105.9625L212.5 120.9625000000001V179.0375000000001L250 194.0375000000001z" />
    <glyph glyph-name="029-pneumonia"
      unicode="&#xF11D;"
      horiz-adv-x="300" d="M96.984375 253.3359375L91.6125 261.01875C72.7359375 247.8046875 55.921875 231.9328125 41.634375 213.84375L48.99375 208.0359375C62.7140625 225.4078125 78.8578125 240.6515625 96.984375 253.3359375zM275.4421875 146.934375C266.6062500000001 169.40625 254.1609375 190.05 238.4953125 208.4296875L279.8765625000001 249.8109375C281.2171875 251.1515625 281.6203125 253.1671875 280.89375 254.9203125C280.171875 256.66875 278.45625 257.8125 276.5625000000001 257.8125H271.6078125L289.7484375 283.2140625C290.7703125000001 284.64375 290.90625 286.5234375 290.1046875 288.084375S287.6953125 290.625 285.9375 290.625H225C222.6375 290.625 220.640625 288.8671875 220.35 286.51875L215.6625 249.01875C215.49375 247.6828125 215.9109375 246.3421875 216.796875 245.334375C217.6875 244.3265625 218.9671875 243.75 220.3125 243.75H228.65625L224.56875 223.321875C216.2109375 231.4640625 207.20625 238.9734375 197.6625 245.6484375C195.0984375 247.471875 192.0421875 248.4375 188.8125 248.4375C180.3375 248.4375 173.4375 241.5421875 173.4375 233.0625V178.9875C167.9953125 180.928125 164.0625 186.084375 164.0625 192.1875V290.625H154.6875V192.1875C154.6875 180.871875 162.7546875 171.403125 173.4375 169.2234375V159.7546875C165.7734375 160.8609375 158.6859375 164.6109375 153.5203125 170.484375C151.74375 172.5140625 148.25625 172.5140625 146.4796875 170.484375C141.3140625 164.60625 134.2265625 160.8609375 126.5625 159.7546875V169.2234375C137.2453125 171.403125 145.3125 180.8671875 145.3125 192.1875V290.625H135.9375V192.1875C135.9375 186.084375 132.0046875 180.928125 126.5625 178.9875V233.0625C126.5625 241.5421875 119.6625 248.4375 111.1875 248.4375C107.9625 248.4375 104.9015625 247.471875 102.35625 245.6671875C72.58125 224.7984375 48.3 196.575 32.1328125 164.04375C25.2984375 150.3234375 19.9171875 135.7640625 16.134375 120.7921875C11.6484375 103.33125 9.375 85.2562499999999 9.375 67.0781249999999V24.7499999999999C9.375 16.2749999999999 16.275 9.3749999999999 24.75 9.3749999999999H25.359375C27.9421875 9.3749999999999 30.5015625 10.0265625 32.775 11.26875L114.4171875 56.1656249999999C121.9125 60.2624999999999 126.5625 68.1468749999999 126.5625 76.7343749999999V150.2906249999999C135.2765625 151.2656249999999 143.4796875 154.9031249999999 150 160.7437499999999C156.5203125 154.9031249999999 164.7234375 151.265625 173.4375 150.2906249999999V76.7343749999999C173.4375 68.1421874999999 178.0875 60.2624999999999 185.5265625 56.1984374999999L267.24375 11.2593749999999C269.503125 10.0265625 272.0625 9.3749999999999 274.640625 9.3749999999999H275.25C283.7296875 9.3749999999999 290.6250000000001 16.2703124999999 290.6250000000001 24.7499999999999V67.0781249999999C290.6250000000001 94.6171874999999 285.515625 121.4859375 275.4421875000001 146.934375zM107.7609375 238.0078125C108.721875 238.6875 109.9359375 239.0625 111.1875 239.0625C114.496875 239.0625 117.1875 236.371875 117.1875 233.0625V140.5265625C109.734375 137.5359375 101.8828125 135.9375 93.75 135.9375C73.4484375 135.9375 54.3140625 145.8328125 41.896875 162.4171875C57.35625 192.4640625 80.034375 218.5734375 107.7609375 238.0078125zM28.265625 19.490625C27.3796875 19.0078125 26.3765625 18.75 25.359375 18.75H24.75C21.440625 18.75 18.75 21.440625 18.75 24.75V67.078125C18.75 78.028125 19.7109375 88.921875 21.421875 99.675C30.2671875 72.76875 43.4390625 51.009375 59.6109375 36.73125zM109.9125 64.3875L68.4046875 41.5640625C49.275 57.1125 33.7640625 85.2609375 25.51875 119.559375C28.4859375 131.0484375 32.465625 142.2421875 37.3265625 152.9859375C51.5109375 136.3265625 72.0703125 126.5625 93.75 126.5625C101.8265625 126.5625 109.6734375 127.89375 117.1875 130.4671875V76.734375C117.1875 71.5734375 114.403125 66.84375 109.9125 64.3875zM225.6234375 253.1250000000001L229.1390625 281.2500000000001H276.8296875000001L258.6890625000001 255.8484375000001C257.6671875 254.4187500000001 257.53125 252.5390625000001 258.3328125000001 250.9781250000001S260.7421875000001 248.4375000000001 262.5000000000001 248.4375000000001H265.2468750000001L232.63125 215.821875L238.9734375000001 247.5140625C239.2500000000001 248.8921875000001 238.8890625000001 250.3218750000001 238.0031250000001 251.4046875C237.1078125 252.4968750000001 235.7812500000001 253.1250000000001 234.3750000000001 253.1250000000001zM182.8125 76.734375V233.0625000000001C182.8125 236.371875 185.503125 239.0625000000001 188.8125 239.0625000000001C190.0640625 239.0625000000001 191.2734375 238.6875000000001 192.2625 237.9890625000001C203.090625 230.4140625000001 213.178125 221.746875 222.35625 212.259375L220.4015625 202.4859375C219.99375 200.4609375000001 220.9640625 198.4078125 222.7875 197.4328125C223.4859375 197.0578125000001 224.2453125 196.875 225 196.875C226.2140625 196.875 227.4140625 197.3484375000001 228.3140625 198.2484375L231.84375 201.7781250000001C246.2484375 184.7578125 257.75625 165.7078125 266.08125 145.0265625000001C254.5453125 107.9859375 226.3125 78.0843750000001 190.03125 64.4296875C185.578125 66.890625 182.8125 71.5921875 182.8125 76.734375zM281.25 24.75C281.25 21.440625 278.559375 18.75 275.25 18.75H274.640625C273.6234375 18.75 272.615625 19.0078125 271.74375 19.48125L200.55 58.6125C232.4859375 72.8015625 257.840625 98.98125 271.06875 131.26875C277.7953125 110.5921875 281.25 89.0625 281.25 67.078125z" />
    <glyph glyph-name="030-stay-home"
      unicode="&#xF11E;"
      horiz-adv-x="300" d="M37.5 124.546875H46.875V129.234375C46.875 131.1515625 45.703125 132.8765625 43.9265625 133.5890625C42.6515625 134.0953125 41.41875 134.6859375 40.2234375 135.346875L35.68125 127.14375C36.28125 126.815625 36.8859375 126.496875 37.5 126.196875zM27.1546875 179.34375L18.8765625 183.7453125C17.165625 180.5296875 15.88125 177.103125 15.0703125 173.5546875L24.20625 171.459375C24.8390625 174.2015625 25.8328125 176.8546875 27.1546875 179.34375zM23.409375 163.0734375L14.0390625 162.7359375C14.1703125 159.1265625 14.765625 155.53125 15.8109375 152.0390625L24.7921875 154.7296875C23.9765625 157.4578125 23.5078125 160.2609375 23.409375 163.0734375zM128.614546875 280.9731187500001L135.986896875 287.24251875L142.058859375 280.102340625L134.686509375 273.832940625zM20.184375 142.134375C22.059375 139.0125 24.3375 136.153125 26.94375 133.6265625L33.4640625 140.3671875C31.44375 142.321875 29.6765625 144.5484375000001 28.21875 146.9718750000001zM84.385640625 243.353175L91.7615625 249.6256125L97.833525 242.485434375L90.457603125 236.212996875zM69.641109375 230.80850625L77.01703125 237.08094375L83.08899375 229.940765625L75.713071875 223.668328125zM99.130171875 255.89315625L106.50609375 262.1655937500001L112.57805625 255.025415625L105.202134375 248.752978125zM113.874703125 268.4331375L121.247053125 274.7025375L127.319015625 267.5623593750001L119.946665625 261.292959375zM54.901265625 218.268525L62.2771875 224.5409625L68.34915 217.400784375L60.973228125 211.128346875zM40.156734375 205.72854375L47.53265625 212.00098125L53.60461875 204.860803125L46.228696875 198.588365625zM35.0015625 189.065625L38.821875 192.309375L32.7515625 199.453125L28.921875 196.2C27.58125 195.05625 26.325 193.8515625 25.1578125 192.5859375L32.0484375 186.225C32.9671875 187.2234375 33.95625 188.175 35.0015625 189.065625zM150 286.81875L150.534375 286.3640625L156.6046875 293.503125L153.0328125 296.5359375C151.284375 298.0265625 148.7109375 298.0265625 146.9625 296.5359375L143.390625 293.503125L149.4609375 286.3640625zM202.222715625 242.489325L208.294678125 249.629503125L215.667028125 243.360103125L209.595065625 236.219925zM216.990909375 229.920909375L223.062871875 237.0610875L230.43879375 230.78865L224.36683125 223.648471875zM172.717753125 267.56745L178.789715625 274.707628125L186.162065625 268.438228125L180.090103125 261.29805zM187.470234375 255.03073125L193.542196875 262.170909375L200.9145468750001 255.901509375L194.842584375 248.76133125zM157.965271875 280.10416875L164.037234375 287.244346875L171.409584375 280.974946875L165.337621875 273.83476875zM267.91875 186.2671875L274.8046875 192.628125C273.646875 193.884375 272.4046875 195.0703125 271.078125 196.2046875L267.2109375 199.490625L261.1359375 192.3515625L265.003125 189.065625C266.0390625 188.184375 267.009375 187.246875 267.91875 186.2671875zM246.495871875 204.838096875L252.567834375 211.978275L259.94375625 205.7058375L253.87179375 198.565659375zM231.7469625 217.376465625L237.8189250000001 224.51664375L245.194846875 218.24420625L239.122884375 211.104028125zM275.784375 171.5015625L284.9156250000001 173.625C284.090625 177.16875 282.80625 180.590625 281.0953125000001 183.8015625L272.8218750000001 179.390625C274.1531250000001 176.9015625 275.146875 174.253125 275.784375 171.5015625zM276.5953125 163.1203125C276.5015625 160.3125 276.0375 157.509375 275.2265625 154.78125L284.2078125 152.1C285.253125 155.5921875 285.84375 159.196875 285.965625 162.8015625zM266.5734375 140.3953125L273.1078125 133.6640625C275.709375 136.190625 277.978125 139.0546875 279.853125 142.18125L271.809375 147.0046875C270.3515625 144.5765625 268.5890625 142.35 266.5734375 140.3953125000001zM256.0734375 133.5890625C254.296875 132.88125 253.125 131.1515625 253.125 129.234375V124.546875H262.5V126.196875C263.1140625 126.496875 263.71875 126.815625 264.31875 127.14375L259.7765625 135.346875C258.5859375 134.6859375 257.3484375 134.0953125 256.0734375 133.5890625zM37.5 77.53125H46.875V68.1609375H37.5zM37.5 58.790625H46.875V49.4203125H37.5zM46.875 37.5V40.05H37.5V37.5C37.5 34.8421875 37.8234375 32.19375 38.45625 29.625L47.5546875 31.875C47.1046875 33.7078125 46.875 35.6015625 46.875 37.5zM210.9890625 14.0625H220.359375V4.6875H210.9890625zM37.5 115.0171875H46.875V105.646875H37.5zM37.5 96.2765625H46.875V86.90625H37.5zM244.1953125 19.1109375L249.9984375 11.7515625C252.871875 14.0109375 255.328125 16.725 257.30625 19.8046875L249.4171875 24.8671874999999C248.00625 22.6687499999999 246.2484375 20.7328125 244.1953125 19.1109375zM253.125 96.4359375H262.5V87.065625H253.125zM253.125 115.1765625H262.5V105.80625H253.125zM253.125 77.6953125H262.5V68.325H253.125zM253.125 37.5C253.125 35.64375 252.909375 33.7921875 252.4734375 32.00625L261.5859375 29.8078125C262.1953125 32.315625 262.5 34.8984375 262.5 37.5V40.2140625H253.125zM253.125 58.9546875H262.5V49.584375H253.125zM50.6484375 24.75L42.796875 19.63125C44.79375 16.5703125 47.2640625 13.875 50.1421875 11.6296875L55.9078125 19.0171875C53.85 20.6296875 52.078125 22.55625 50.6484375 24.75zM229.725 14.0671875L229.7390625 4.6921875C233.4046875 4.696875 237.0140625 5.3109375 240.4640625 6.5109375L237.384375 15.365625C234.9234375 14.5078125 232.3453125 14.071875 229.725 14.0671875zM98.540625 14.0625H107.9109375V4.6875H98.540625zM79.8 14.0625H89.1703125V4.6875H79.8zM62.746875 15.31875L59.7140625 6.4453125C63.121875 5.278125 66.69375 4.6875 70.3125 4.6875H70.4296875L70.3125 14.0625C67.725 14.0625 65.1796875 14.484375 62.746875 15.31875zM154.7671875 14.0625H164.1375V4.6875H154.7671875zM117.2859375 14.0625H126.65625V4.6875H117.2859375zM136.0265625 14.0625H145.396875V4.6875H136.0265625zM192.2484375 14.0625H201.61875V4.6875H192.2484375zM173.5078125 14.0625H182.878125V4.6875H173.5078125zM65.625 145.3125C65.625 147.9046875 63.525 150 60.9375 150H56.25V140.625H65.625zM42.341221875 182.982740625L49.55998125 189.121528125L55.63194375 181.98135L48.413184375 175.8425625zM44.8875 143.4796875L49.4109375 151.6921875C47.371875 152.8125 45.6234375 154.490625 44.3578125 156.5296875L36.39375 151.584375C38.503125 148.18125 41.4421875 145.378125 44.8875 143.4796875zM114.50806875 244.35706875L121.726828125 250.49585625L127.798790625 243.355678125L120.58003125 237.216890625zM56.749884375 195.20079375L63.972215625 201.34261875L70.047215625 194.19886875L62.824884375 188.05704375zM35.0671875 174.24375C33.54375 171.121875 32.775 167.7515625 32.775 164.2546875C32.775 163.734375 32.7890625 163.209375 32.8265625 162.684375L42.178125 163.3078125C42.159375 163.603125 42.15 163.9078125 42.15 164.2265625C42.15 166.3125 42.6046875 168.3 43.4953125 170.1328125zM71.202121875 207.519515625L78.424453125 213.661340625L84.496415625 206.5211625L77.274084375 200.3793375zM85.634221875 219.75163125L92.856553125 225.89345625L98.931553125 218.74970625L91.709221875 212.60788125zM100.07293125 232.0769625L107.291690625 238.21575L113.363653125 231.0755718750001L106.14489375 224.936784375zM128.967178125 256.592221875L136.189509375 262.734046875L142.264509375 255.590296875L135.042178125 249.448471875zM150 262.209375L150.534375 261.7546875L156.6046875 268.89375L153.0328125 271.9265625C151.284375 273.4171875 148.7109375 273.4171875 146.9625 271.9265625L143.390625 268.89375L149.4609375 261.7546875zM157.795865625 255.6347625L163.870865625 262.7785125000001L171.093196875 256.6366875L165.018196875 249.4929375000001zM215.611875 206.46691875L221.6838375000001 213.607096875L228.9025968750001 207.468309375L222.8306343750001 200.32813125zM201.17083125 218.74584375L207.24279375 225.886021875L214.461553125 219.747234375L208.389590625 212.60705625zM230.036090625 194.235403125L236.108053125 201.37558125L243.330384375 195.23375625L237.258421875 188.093578125zM263.6390625 151.63125L255.6609375 156.5578125C254.4000000000001 154.509375 252.6562500000001 152.8359375 250.621875 151.7109375L255.159375 143.5078125C258.5953125 145.4109375 261.5296875 148.21875 263.6390625 151.63125zM267.225 164.2265625C267.225 167.7609375 266.4468750000001 171.1453125 264.909375 174.2859375L256.4859375000001 170.165625C257.390625 168.31875 257.85 166.321875 257.85 164.2265625C257.85 163.9265625 257.840625 163.621875 257.8218750000001 163.321875L267.178125 162.7359375C267.20625 163.2375 267.225 163.734375 267.225 164.2265625zM186.699740625 231.066421875L192.771703125 238.2066L199.9940343750001 232.064775L193.922071875 224.924596875zM244.4443218750001 182.040853125L250.5193218750001 189.184603125L257.7416531250001 183.042778125L251.6666531250001 175.899028125zM172.239946875 243.3640968750001L178.314946875 250.5078468750001L185.537278125 244.3660218750001L179.4622781250001 237.2222718750001zM234.375 145.3125V140.625H243.75V150H239.0625C236.475 150 234.375 147.9046875 234.375 145.3125zM163.8046875 32.8125H172.9921875V23.4375H163.8046875zM218.9296875 32.8125H228.1171875V23.4375H218.9296875zM234.375 37.5C234.375 36.2953125 233.9203125 35.1515625 233.090625 34.275L239.8875 27.8203125C242.38125 30.4453125 243.75 33.88125 243.75 37.4999999999999V39.5671875H234.375zM182.1796875 32.8125H191.3671875V23.4375H182.1796875zM145.434375 32.8125H154.621875V23.4375H145.434375zM234.375 57.9421875H243.75V48.7546875H234.375zM200.5546875 32.8125H209.7375V23.4375H200.5546875zM56.25 131.38125H65.625V122.19375H56.25zM234.375 113.0625H243.75V103.875H234.375zM234.375 76.3171875H243.75V67.1296875H234.375zM234.375 94.6875H243.75V85.5046875H234.375zM234.375 131.4375H243.75V122.25H234.375zM56.25 76.265625H65.625V67.078125H56.25zM56.25 94.6359375H65.625V85.4484375H56.25zM56.25 113.0109375H65.625V103.8234375H56.25zM127.059375 32.8125H136.246875V23.4375H127.059375zM56.25 57.890625H65.625V48.703125H56.25zM90.3140625 32.8125H99.5015625V23.4375H90.3140625zM56.25 37.5C56.25 33.853125 57.6375 30.39375 60.1640625 27.7640625L66.928125 34.25625C66.0890625 35.128125 65.625 36.28125 65.625 37.5V39.515625H56.25zM108.6890625 32.8125H117.871875V23.4375H108.6890625zM71.9390625 32.8125H81.1265625V23.4375H71.9390625zM248.146875 162.4453125C248.8265625 164.2921875 248.2828125000001 166.359375 246.7828125000001 167.6296875L153.0328125 247.3171875C151.2843750000001 248.8078125 148.7109375 248.8078125 146.9625 247.3171875L53.2125 167.6296875C51.7125 166.359375 51.16875 164.2875 51.8484375 162.4453125S54.2859375 159.375 56.25 159.375H75V46.875C75 44.2828125 77.1 42.1875 79.6875 42.1875H220.3125C222.9 42.1875 225 44.2828125 225 46.875V159.375H243.75C245.7140625 159.375 247.471875 160.603125 248.146875 162.4453125zM154.6875 51.5625V103.125H145.3125V51.5625H131.25V140.625H121.875V112.5H112.5V140.625C112.5 148.378125 118.809375 154.6875 126.5625 154.6875H173.4375C181.190625 154.6875 187.5 148.378125 187.5 140.625V112.5H178.125V140.625H168.75V51.5625zM131.25 182.8125C131.25 193.153125 139.659375 201.5625 150 201.5625S168.75 193.153125 168.75 182.8125S160.340625 164.0625 150 164.0625S131.25 172.471875 131.25 182.8125zM220.3125 168.75C217.725 168.75 215.625 166.6546875 215.625 164.0625V51.5625H178.125V103.125H192.1875C194.775 103.125 196.875 105.2203125 196.875 107.8125V140.625C196.875 153.5484375 186.3609375 164.0625 173.4375 164.0625H170.90625C175.378125 169.0453125 178.125 175.603125 178.125 182.8125C178.125 198.3234375 165.5109375 210.9375 150 210.9375S121.875 198.3234375 121.875 182.8125C121.875 175.603125 124.621875 169.0453125 129.09375 164.0625H126.5625C113.6390625 164.0625 103.125 153.5484375 103.125 140.625V107.8125C103.125 105.2203125 105.225 103.125 107.8125 103.125H121.875V51.5625H84.375V164.0625C84.375 166.6546875 82.275 168.75 79.6875 168.75H69.0046875L150 237.6L230.9953125 168.75z" />
    <glyph glyph-name="031-burger"
      unicode="&#xF11F;"
      horiz-adv-x="300" d="M243.75 150H56.25A28.059375 28.059375 0 0 1 46.875 95.475V65.625A28.125 28.125 0 0 1 75 37.5H225A28.125 28.125 0 0 1 253.125 65.625V95.475A28.059375 28.059375 0 0 1 243.75 150zM234.375 65.625A9.375 9.375 0 0 0 225 56.25H75A9.375 9.375 0 0 0 65.625 65.625V93.75H234.375zM243.75 112.5H56.25A9.375 9.375 0 0 0 56.25 131.25H243.75A9.375 9.375 0 0 0 243.75 112.5zM274.78125 175.378125A25.6125 25.6125 0 0 1 235.275 175.378125C232.14375 172.2375 231.234375 171.5625 228.796875 171.5625S225.440625 172.2375 222.3 175.378125A25.603125 25.603125 0 0 1 182.803125 175.378125C179.6624999999999 172.2375 178.753125 171.5625 176.30625 171.5625S172.9687499999999 172.2375 169.8374999999999 175.36875A25.59375 25.59375 0 0 1 130.3406249999999 175.36875C127.1999999999999 172.228125 126.2999999999999 171.553125 123.8437499999999 171.553125S120.4968749999999 172.228125 117.3562499999999 175.36875A25.621875 25.621875 0 0 1 77.8406249999999 175.36875C74.6999999999999 172.228125 73.7906249999999 171.553125 71.3437499999999 171.553125S67.9687499999999 172.228125 64.7812499999999 175.378125A26.11875 26.11875 0 0 1 45.0468749999999 184.6875A26.25 26.25 0 0 1 25.2656249999999 175.3875C22.1156249999999 172.2375 21.2156249999999 171.5625 18.7499999999999 171.5625V152.8125A26.19375 26.19375 0 0 1 38.5218749999999 162.1125C41.6718749999999 165.2625 42.5812499999999 165.9375 45.0843749999999 165.9375S48.4499999999999 165.2625 51.6468749999999 162.1125A25.65 25.65 0 0 1 91.1812499999999 162.1125C94.3218749999999 165.253125 95.2218749999999 165.928125 97.6781249999999 165.928125S101.0437499999999 165.253125 104.1843749999999 162.1125A25.603125 25.603125 0 0 1 143.68125 162.1125C146.821875 165.253125 147.7312499999999 165.928125 150.1781249999999 165.928125S153.515625 165.253125 156.646875 162.1125A25.603125 25.603125 0 0 1 196.14375 162.1125C199.284375 165.253125 200.19375 165.928125 202.63125 165.928125S205.9875 165.253125 209.128125 162.1125A25.603125 25.603125 0 0 1 248.625 162.1125C251.765625 165.253125 252.665625 165.928125 255.1125 165.928125S258.459375 165.253125 261.590625 162.1125A26.090625 26.090625 0 0 1 281.25 152.8125V171.5625C278.8125 171.5625 277.9125 172.2375 274.78125 175.378125zM56.25 187.5H243.75A9.375 9.375 0 0 1 253.125 196.875A65.709375 65.709375 0 0 1 187.5 262.5H112.5A65.709375 65.709375 0 0 1 46.875 196.875A9.375 9.375 0 0 1 56.25 187.5zM112.5 243.75H187.5A46.95 46.95 0 0 0 233.4375 206.25H66.5625A46.95 46.95 0 0 0 112.5 243.75z" />
    <glyph glyph-name="032-joystick"
      unicode="&#xF120;"
      horiz-adv-x="300" d="M159.375 234.009375V262.5H140.625V234.009375C67.5 230.259375 9.375 183.525 9.375 126.440625C9.375 84.675 41.25 46.303125 90.6 28.66875A9.375 9.375 0 0 1 103.125 37.5V47.596875A29.165625 29.165625 0 0 0 131.25 77.596875H168.75A29.165625 29.165625 0 0 0 196.875 47.596875V37.5A9.375 9.375 0 0 1 209.409375 28.66875C258.75 46.303125 290.625 84.675 290.625 126.440625C290.625 183.525 232.546875 230.278125 159.375 234.0093750000001zM215.475 51.43125A47.7375 47.7375 0 0 1 168.75 96.39375H131.25A47.746875 47.746875 0 0 1 84.515625 51.39375C49.828125 67.70625 28.125 96.13125 28.125 126.39375C28.125 175.6125 82.8 215.625 150 215.625S271.875 175.6125 271.875 126.440625C271.875 96.16875 250.134375 67.74375 215.475 51.43125zM225 121.875H187.5A9.375 9.375 0 0 0 178.125 131.25V168.75A9.375 9.375 0 0 0 187.5 178.125H225A9.375 9.375 0 0 0 234.375 168.75V131.25A9.375 9.375 0 0 0 225 121.875zM196.875 140.625H215.625V159.375H196.875zM121.875 159.375H103.125V178.125H84.375V159.375H65.625V140.625H84.375V121.875H103.125V140.625H121.875z" />
    <glyph glyph-name="033-cosmetics"
      unicode="&#xF121;"
      horiz-adv-x="300" d="M131.25 159.375H121.875V187.5A9.375 9.375 0 0 1 112.5 196.875H103.125V243.75A9.375 9.375 0 0 1 100.378125 250.378125L62.878125 287.878125A9.375 9.375 0 0 1 46.875 281.25V196.875H37.5A9.375 9.375 0 0 1 28.125 187.5V159.375H18.75A9.375 9.375 0 0 1 9.375 150V18.75A9.375 9.375 0 0 1 18.75 9.375H131.25A9.375 9.375 0 0 1 140.625 18.75V150A9.375 9.375 0 0 1 131.25 159.375zM65.625 258.61875L84.375 239.86875V196.875H65.625zM46.875 178.125H103.125V159.375H46.875zM121.875 28.125H28.125V140.625H121.875zM281.25 121.875H234.375V159.375H243.75A9.375 9.375 0 0 1 253.125 168.75V178.125H281.25V196.875H253.125V215.625H281.25V234.375H253.125V253.125H281.25V271.875H253.125V281.25A9.375 9.375 0 0 1 243.75 290.625H206.25A9.375 9.375 0 0 1 196.875 281.25V271.875H168.75V253.125H196.875V234.375H168.75V215.625H196.875V196.875H168.75V178.125H196.875V168.75A9.375 9.375 0 0 1 206.25 159.375H215.625V121.875H168.75A9.375 9.375 0 0 1 159.375 112.5V18.75A9.375 9.375 0 0 1 168.75 9.375H281.25A9.375 9.375 0 0 1 290.625 18.75V112.5A9.375 9.375 0 0 1 281.25 121.875zM215.625 271.875H234.375V178.125H215.625zM271.875 28.125H178.125V103.125H271.875z" />
    <glyph glyph-name="034-spoon-and-fork"
      unicode="&#xF122;"
      horiz-adv-x="300" d="M121.875 281.25V206.25A28.05 28.05 0 0 0 108.0375 182.15625A2.04375 2.04375 0 0 1 107.784375 182.053125A28.70625 28.70625 0 0 0 103.096875 180.075V281.25H84.375V180.075A28.70625 28.70625 0 0 0 79.6875 182.053125A2.04375 2.04375 0 0 1 79.434375 182.15625A28.05 28.05 0 0 0 65.625 206.25V281.25H46.875V206.25A46.659375 46.659375 0 0 1 65.625 168.99375V37.5A28.125 28.125 0 0 1 121.875 37.5V168.99375A46.659375 46.659375 0 0 1 140.625 206.25V281.25zM103.125 37.5A9.375 9.375 0 0 0 84.375 37.5V160.3125A46.875 46.875 0 0 1 103.125 160.3125zM253.125 225C253.125 261.796875 232.5 290.625 206.25 290.625S159.375 261.796875 159.375 225A76.209375 76.209375 0 0 1 178.125 172.246875V37.5A28.125 28.125 0 0 1 234.375 37.5V172.246875A76.209375 76.209375 0 0 1 253.125 225zM206.25 271.875C221.49375 271.875 234.375 250.40625 234.375 225S221.49375 178.125 206.25 178.125S178.125 199.59375 178.125 225S191.00625 271.875 206.25 271.875zM206.25 28.125A9.375 9.375 0 0 0 196.875 37.5V160.65A35.1 35.1 0 0 1 215.625 160.65V37.5A9.375 9.375 0 0 0 206.25 28.125z" />
    <glyph glyph-name="035-racing-helmet"
      unicode="&#xF123;"
      horiz-adv-x="300" d="M290.4 227.053125A9.375 9.375 0 0 1 286.21875 232.95C130.003125 330.4781250000001 49.2375 212.634375 48.440625 211.434375C47.98125 210.740625 9.853125 96.76875 9.853125 96.76875A9.45 9.45 0 0 1 9.853125 90.834375L28.603125 34.584375A9.375 9.375 0 0 1 41.484375 29.0625000000001C112.959375 62.578125 222.421875 46.040625 223.55625 45.871875A9.534375 9.534375 0 0 1 231.4125 48.3C284.60625 98.2125000000001 275.475 175.5375 272.390625 193.93125L289.1343750000001 219.9750000000001A9.375 9.375 0 0 1 290.4000000000001 227.0531250000001zM63.009375 196.875H174A22.875 22.875 0 0 0 180.5625 152.090625L33.375 107.9625zM253.321875 193.875C253.5 193.06875 269.671875 113.94375 221.7375 65.025C200.175 67.8375 111.046875 77.334375 43.153125 50.175L30.703125 87.590625L185.953125 134.128125A41.625 41.625 0 0 1 174 215.625H76.44375C101.428125 240.5250000000001 164.325 282.703125 268.153125 221.9625L254.615625 200.896875A9.375 9.375 0 0 1 253.33125 193.875z" />
    <glyph glyph-name="036-shirt"
      unicode="&#xF124;"
      horiz-adv-x="300" d="M289.959375 172.2375L252.459375 265.9875A9.375 9.375 0 0 1 246.7125 271.396875L190.4625 290.146875A9.375 9.375 0 0 1 178.125 281.371875A28.55625 28.55625 0 0 0 121.021875 281.371875A9.375 9.375 0 0 1 108.6375 290.128125L53.325 271.378125A9.375 9.375 0 0 1 47.625 265.9875L10.125 172.2375A9.375 9.375 0 0 1 15.871875 159.853125L65.625 143.240625V18.75A9.375 9.375 0 0 1 75 9.375H225A9.375 9.375 0 0 1 234.375 18.75V143.240625L284.2125 159.853125A9.375 9.375 0 0 1 289.959375 172.2375zM234.375 163.0125V206.25H215.625V28.125H84.375V206.25H65.625V163.0125L31.14375 174.496875L63.346875 255L104.034375 268.78125A47.278125 47.278125 0 0 1 195 268.846875L236.6625 255L268.85625 174.515625z" />
    <glyph glyph-name="037-briefcase"
      unicode="&#xF125;"
      horiz-adv-x="300" d="M262.5 215.625H215.625V243.75A28.125 28.125 0 0 1 187.5 271.875H112.5A28.125 28.125 0 0 1 84.375 243.75V215.625H37.5A28.125 28.125 0 0 1 9.375 187.5V56.25A28.125 28.125 0 0 1 37.5 28.125H262.5A28.125 28.125 0 0 1 290.625 56.25V187.5A28.125 28.125 0 0 1 262.5 215.625zM103.125 243.75A9.375 9.375 0 0 0 112.5 253.125H187.5A9.375 9.375 0 0 0 196.875 243.75V215.625H103.125zM28.125 187.5A9.375 9.375 0 0 0 37.5 196.875H262.5A9.375 9.375 0 0 0 271.875 187.5V138.928125L185.625 121.6875A9.375 9.375 0 0 1 178.125 112.5A28.125 28.125 0 0 0 121.875 112.5A9.375 9.375 0 0 1 114.375 121.6875L28.125 138.928125zM262.5 46.875H37.5A9.375 9.375 0 0 0 28.125 56.25V119.8125L103.771875 104.68125A46.875 46.875 0 0 1 196.228125 104.68125L271.875 119.8125V56.25A9.375 9.375 0 0 0 262.5 46.875zM150 103.125A9.375 9.375 0 1 0 159.375 112.5A9.375 9.375 0 0 0 150 103.125z" />
    <glyph glyph-name="038-laptop"
      unicode="&#xF126;"
      horiz-adv-x="300" d="M281.25 103.125H271.875V243.75A9.375 9.375 0 0 1 262.5 253.125H37.5A9.375 9.375 0 0 1 28.125 243.75V103.125H18.75A9.375 9.375 0 0 1 9.375 93.75A46.93125 46.93125 0 0 1 56.25 46.875H243.75A46.93125 46.93125 0 0 1 290.625 93.75A9.375 9.375 0 0 1 281.25 103.125zM46.875 234.375H253.125V103.125H46.875zM243.75 65.625H56.25A28.18125 28.18125 0 0 0 29.728125 84.375H270.271875A28.18125 28.18125 0 0 0 243.75 65.625z" />
    <glyph glyph-name="039-book"
      unicode="&#xF127;"
      horiz-adv-x="300" d="M206.25 196.875H131.25A9.375 9.375 0 0 0 121.875 206.25V243.75A9.375 9.375 0 0 0 131.25 253.125H206.25A9.375 9.375 0 0 0 215.625 243.75V206.25A9.375 9.375 0 0 0 206.25 196.875zM140.625 215.625H196.875V234.375H140.625zM243.75 84.375A9.375 9.375 0 0 1 253.125 93.75V281.25A9.375 9.375 0 0 1 243.75 290.625H93.75A46.93125 46.93125 0 0 1 46.875 243.75V56.25A46.93125 46.93125 0 0 1 93.75 9.375H253.125V28.125H234.375V84.375zM234.375 103.125H103.125V271.875H234.375zM65.625 243.75A28.125 28.125 0 0 0 84.375 270.15V102.075A46.6875 46.6875 0 0 1 65.625 93.75zM215.625 28.125H93.75A28.125 28.125 0 0 0 93.75 84.375H215.625z" />
    <glyph glyph-name="040-sofa"
      unicode="&#xF128;"
      horiz-adv-x="300" d="M262.5 196.875H252.571875A84.46875 84.46875 0 0 1 168.75 271.875H131.25A84.46875 84.46875 0 0 1 47.428125 196.875H37.5A28.125 28.125 0 0 1 9.375 168.75V131.25A28.18125 28.18125 0 0 1 28.125 104.728125V37.5A9.375 9.375 0 0 1 37.5 28.125H262.5A9.375 9.375 0 0 1 271.875 37.5V104.728125A28.18125 28.18125 0 0 1 290.625 131.25V168.75A28.125 28.125 0 0 1 262.5 196.875zM84.375 46.875H46.875V103.125H75V121.875H37.5A9.375 9.375 0 0 0 28.125 131.25V168.75A9.375 9.375 0 0 0 37.5 178.125H75A9.375 9.375 0 0 0 84.375 168.75zM75 196.875H66.375A65.68125 65.68125 0 0 0 131.25 253.125H168.75A65.68125 65.68125 0 0 0 233.6250000000001 196.875H225A28.125 28.125 0 0 1 196.875 168.75V140.625H103.125V168.75A28.125 28.125 0 0 1 75 196.875zM196.875 46.875H103.125V84.375H196.875zM103.125 103.125V121.875H196.875V103.125zM271.875 131.25A9.375 9.375 0 0 0 262.5 121.875H225V103.125H253.125V46.875H215.625V168.75A9.375 9.375 0 0 0 225 178.125H262.5A9.375 9.375 0 0 0 271.875 168.75z" />
    <glyph glyph-name="041-high-heels"
      unicode="&#xF129;"
      horiz-adv-x="300" d="M262.546875 46.875H243.84375A9.375 9.375 0 0 0 234.46875 56.25V131.75625L118.378125 48.628125A9.375 9.375 0 0 0 112.921875 46.875H34.44375A9.375 9.375 0 0 0 30.20625 47.8875C3.675 61.33125 9.9375 94.2 10.21875 95.625A9.375 9.375 0 0 0 13.78125 101.25L88.584375 157.5A9.375 9.375 0 0 0 102.646875 154.2L104.475 150.553125A27.946875 27.946875 0 0 1 143.475 138.703125C177.43125 158.334375 234.46875 198.09375 234.46875 243.75A9.375 9.375 0 0 0 243.84375 253.125A46.875 46.875 0 0 0 290.625 206.25V187.5A8.953125 8.953125 0 0 0 290.53125 186.178125L271.875 54.928125A9.375 9.375 0 0 0 262.546875 46.875zM253.21875 65.625H254.41875L271.875 188.165625V206.25A28.125 28.125 0 0 1 252.45 233.015625C245.690625 185.625 195.440625 147.084375 152.8125 122.45625A46.078125 46.078125 0 0 0 116.08125 118.1906250000001A47.015625 47.015625 0 0 0 91.303125 136.078125L28.209375 88.6312500000001A24.84375 24.84375 0 0 1 36.91875 65.625H109.9125L238.35 157.6218750000001A9.375 9.375 0 0 0 253.21875 150z" />
    <glyph glyph-name="042-message"
      unicode="&#xF12A;"
      horiz-adv-x="300" d="M125.45625 65.625H56.25C30.3796875 65.625 9.375 86.6296875 9.375 112.5V225C9.375 250.8703125 30.3796875 271.875 56.25 271.875H243.75C269.6203125 271.875 290.625 250.8703125 290.625 225V112.5C290.625 86.6296875 269.6203125 65.625 243.75 65.625H174.54375L158.3859375 33.309375C156.796875 30.13125 153.553125 28.125 150 28.125C146.4515625 28.125 143.203125 30.13125 141.6140625 33.309375zM150 58.4625L160.3640625 79.190625C161.953125 82.36875 165.2015625 84.375 168.75 84.375H243.75C259.275 84.375 271.875 96.9796875 271.875 112.5V225C271.875 240.5203125 259.275 253.125 243.75 253.125H56.25C40.7296875 253.125 28.125 240.5203125 28.125 225V112.5C28.125 96.9796875 40.7296875 84.375 56.25 84.375H131.25C134.803125 84.375 138.046875 82.36875 139.6359375 79.190625zM103.125 178.125C103.125 188.475 94.725 196.875 84.375 196.875H65.625C55.275 196.875 46.875 188.475 46.875 178.125V159.375C46.875 149.025 55.275 140.625 65.625 140.625H84.375C94.725 140.625 103.125 149.025 103.125 159.375zM84.375 178.125H65.625V159.375H84.375zM178.125 178.125C178.125 188.475 169.725 196.875 159.375 196.875H140.625C130.275 196.875 121.875 188.475 121.875 178.125V159.375C121.875 149.025 130.275 140.625 140.625 140.625H159.375C169.725 140.625 178.125 149.025 178.125 159.375zM159.375 178.125H140.625V159.375H159.375zM253.125 178.125C253.125 188.475 244.725 196.875 234.375 196.875H215.625C205.275 196.875 196.875 188.475 196.875 178.125V159.375C196.875 149.025 205.275 140.625 215.625 140.625H234.375C244.725 140.625 253.125 149.025 253.125 159.375zM234.375 178.125H215.625V159.375H234.375z" />
    <glyph glyph-name="043-mail-1"
      unicode="&#xF12B;"
      horiz-adv-x="300" d="M290.625 75C290.625 59.4796875 278.025 46.875 262.5 46.875H37.5C21.9796875 46.875 9.375 59.4796875 9.375 75V225C9.375 240.534375 21.965625 253.125 37.5 253.125H262.5C278.034375 253.125 290.625 240.534375 290.625 225zM98.6953125 141.684375L28.7203125 71.709375C30.0515625 68.15625 33.4828125 65.625 37.5 65.625H262.5C266.5171875 65.625 269.9484375 68.15625 271.2796875 71.709375L201.3046875 141.684375L173.9484375 123.45C172.4109375 122.4234375 170.6015625 121.875 168.75 121.875H131.25C129.3984375 121.875 127.5890625 122.4234375 126.0515625 123.45zM28.125 97.63125L82.7859375 152.2921875L28.125 188.7328125zM217.2140625 152.2921875L271.875 97.63125V188.7328125zM262.5 234.375H37.5C32.325 234.375 28.125 230.175 28.125 225V211.265625L134.090625 140.625H165.9140625L271.875 211.265625V225C271.875 230.175 267.675 234.375 262.5 234.375z" />
    <glyph glyph-name="044-information"
      unicode="&#xF12C;"
      horiz-adv-x="300" d="M159.375 122.3953125V187.5C159.375 192.675 155.175 196.875 150 196.875S140.625 192.675 140.625 187.5V122.3953125C140.625 117.2203125 144.825 113.0203125 150 113.0203125S159.375 117.2203125 159.375 122.3953125zM140.625 215.625A9.375 9.375 0 0 1 159.375 215.625A9.375 9.375 0 0 1 140.625 215.625M125.45625 65.625H56.25C30.3796875 65.625 9.375 86.6296875 9.375 112.5V225C9.375 250.8703125 30.3796875 271.875 56.25 271.875H243.75C269.6203125 271.875 290.625 250.8703125 290.625 225V112.5C290.625 86.6296875 269.6203125 65.625 243.75 65.625H174.54375L158.3859375 33.309375C156.796875 30.13125 153.553125 28.125 150 28.125C146.4515625 28.125 143.203125 30.13125 141.6140625 33.309375zM150 58.4625L160.3640625 79.190625C161.953125 82.36875 165.2015625 84.375 168.75 84.375H243.75C259.275 84.375 271.875 96.9796875 271.875 112.5V225C271.875 240.5203125 259.275 253.125 243.75 253.125H56.25C40.7296875 253.125 28.125 240.5203125 28.125 225V112.5C28.125 96.9796875 40.7296875 84.375 56.25 84.375H131.25C134.803125 84.375 138.046875 82.36875 139.6359375 79.190625z" />
    <glyph glyph-name="045-plane"
      unicode="&#xF12D;"
      horiz-adv-x="300" d="M108.7921875 199.7390625L105.4828125 236.1609375C103.734375 255.3796875 113.94375 273.703125 131.1984375 282.3328125C139.0078125 286.2375 145.809375 289.6359375 145.809375 289.6359375C148.4484375 290.953125 151.5515625 290.953125 154.190625 289.6359375C154.190625 289.6359375 160.9921875 286.2375 168.8015625 282.3328125C186.0609375 273.703125 196.265625 255.3796875 194.521875 236.1609375L191.2078125 199.7390625L280.5046875 125.325C286.9171875 119.98125 290.625 112.0640625 290.625 103.7203125V93.75C290.625 90.5015625 288.9421875 87.4828125 286.18125 85.7765625C283.415625 84.065625 279.965625 83.9109375 277.059375 85.3640625L184.996875 131.3953125L178.6640625 61.771875L200.0765625 51.065625C209.60625 46.303125 215.625 36.5671875 215.625 25.9125V18.75C215.625 13.5703125 211.4296875 9.375 206.25 9.375H93.75C88.5703125 9.375 84.375 13.5703125 84.375 18.75C84.375 18.75 84.375 22.06875 84.375 25.9125C84.375 36.5671875 90.39375 46.303125 99.9234375 51.065625L121.3359375 61.771875L115.003125 131.3953125L22.940625 85.3640625C20.0390625 83.9109375 16.584375 84.065625 13.8234375 85.7765625C11.0578125 87.4828125 9.375 90.5015625 9.375 93.75C9.375 93.75 9.375 98.840625 9.375 103.7203125C9.375 112.0640625 13.0828125 119.98125 19.4953125 125.325zM150 270.76875L139.584375 265.5609375C129.2296875 260.38125 123.1078125 249.3890625 124.153125 237.8578125L127.9125 196.5375C128.1890625 193.4671875 126.9421875 190.4578125 124.575 188.484375C124.575 188.484375 31.5 110.9203125 31.5 110.9203125C31.2421875 110.7046875 30.9984375 110.4796875 30.76875 110.240625L118.9078125 154.3078125C121.678125 155.6953125 124.9546875 155.6203125 127.659375 154.115625C130.36875 152.60625 132.1546875 149.859375 132.4359375 146.775L140.5875 57.0984375C140.934375 53.2546875 138.8953125 49.5890625 135.440625 47.8640625C135.440625 47.8640625 119.4046875 39.8484375 108.309375 34.2984375C105.80625 33.046875 104.034375 30.76875 103.396875 28.125H196.603125C195.965625 30.76875 194.19375 33.046875 191.6953125 34.2984375C180.5953125 39.8484375 164.559375 47.8640625 164.559375 47.8640625C161.1046875 49.5890625 159.065625 53.2546875 159.4125 57.0984375L167.5640625 146.775C167.8453125 149.859375 169.63125 152.60625 172.340625 154.115625C175.0453125 155.6203125 178.321875 155.6953125 181.096875 154.3078125L269.2359375 110.240625C269.0015625 110.4796875 268.7578125 110.7046875 268.5 110.9203125L175.425 188.484375C173.0578125 190.4578125 171.8109375 193.4671875 172.0921875 196.5375C172.0921875 196.5375 175.846875 237.8578125 175.846875 237.8578125C176.896875 249.3890625 170.7703125 260.38125 160.415625 265.5609375z" />
    <glyph glyph-name="046-printer"
      unicode="&#xF12E;"
      horiz-adv-x="300" d="M84.375 215.625V271.875C84.375 282.2296875 92.7703125 290.625 103.125 290.625H168.75C171.2390625 290.625 173.6203125 289.6359375 175.378125 287.878125L212.878125 250.378125C214.6359375 248.6203125 215.625 246.234375 215.625 243.75V215.625H271.875C276.8484375 215.625 281.615625 213.6515625 285.1359375 210.13125C288.6515625 206.615625 290.625 201.8484375 290.625 196.875V131.25C290.625 105.3609375 269.6390625 84.375 243.75 84.375H215.625V28.125C215.625 23.1515625 213.6515625 18.384375 210.13125 14.86875C206.615625 11.3484375 201.8484375 9.375 196.875 9.375C175.6875 9.375 124.3125 9.375 103.125 9.375C98.1515625 9.375 93.384375 11.3484375 89.86875 14.86875C86.3484375 18.384375 84.375 23.1515625 84.375 28.125V84.375H56.25C30.3609375 84.375 9.375 105.3609375 9.375 131.25C9.375 154.4953125 9.375 182.56875 9.375 196.875C9.375 201.8484375 11.3484375 206.615625 14.86875 210.13125C18.384375 213.6515625 23.1515625 215.625 28.125 215.625zM196.875 121.875H103.125V28.125H196.875zM131.25 46.875H168.75C173.925 46.875 178.125 51.075 178.125 56.25S173.925 65.625 168.75 65.625H131.25C126.075 65.625 121.875 61.425 121.875 56.25S126.075 46.875 131.25 46.875zM131.25 84.375H168.75C173.925 84.375 178.125 88.575 178.125 93.75S173.925 103.125 168.75 103.125H131.25C126.075 103.125 121.875 98.925 121.875 93.75S126.075 84.375 131.25 84.375zM271.875 196.875H28.125V131.25C28.125 115.715625 40.715625 103.125 56.25 103.125H84.375V121.875H56.25C51.075 121.875 46.875 126.075 46.875 131.25S51.075 140.625 56.25 140.625H243.75C248.925 140.625 253.125 136.425 253.125 131.25S248.925 121.875 243.75 121.875H215.625V103.125H243.75C259.284375 103.125 271.875 115.715625 271.875 131.25zM243.75 178.125H225C219.825 178.125 215.625 173.925 215.625 168.75S219.825 159.375 225 159.375H243.75C248.925 159.375 253.125 163.575 253.125 168.75S248.925 178.125 243.75 178.125zM196.8375 178.0875C201.9890625 178.0875 206.175 173.9015625 206.175 168.75S201.9890625 159.4125 196.8375 159.4125S187.5 163.5984375 187.5 168.75S191.6859375 178.0875 196.8375 178.0875zM103.125 215.625H196.875V239.86875L164.86875 271.875H103.125z" />
    <glyph glyph-name="047-search"
      unicode="&#xF12F;"
      horiz-adv-x="300" d="M199.9171875 68.071875C180.35625 54.6984375 156.7078125 46.875 131.25 46.875C63.984375 46.875 9.375 101.484375 9.375 168.75S63.984375 290.625 131.25 290.625S253.125 236.015625 253.125 168.75C253.125 143.2921875 245.3015625 119.64375 231.928125 100.0828125L287.878125 44.128125C291.5390625 40.4671875 291.5390625 34.5328125 287.878125 30.871875L269.128125 12.121875C265.4671875 8.4609375 259.5328125000001 8.4609375 255.871875 12.121875zM220.115625 85.378125L219.95625 85.209375L219.9 85.1484375C218.259375 83.4140625 216.571875 81.721875 214.8328125 80.0859375L214.621875 79.884375L262.5 32.00625L267.99375 37.5zM212.353125 105.075C226.14375 122.6109375 234.375 144.7265625 234.375 168.75C234.375 225.665625 188.165625 271.875 131.25 271.875S28.125 225.665625 28.125 168.75S74.334375 65.625 131.25 65.625C155.2734375 65.625 177.3890625 73.85625 194.925 87.6515625L195.0515625 87.75C201.4359375 92.7890625 207.2109375 98.5640625 212.25 104.9484375C212.2828125 104.990625 212.315625 105.0328125 212.353125 105.075zM131.25 253.125C84.684375 253.125 46.875 215.315625 46.875 168.75S84.684375 84.375 131.25 84.375C177.8203125 84.375 215.625 122.184375 215.625 168.75S177.8203125 253.125 131.25 253.125zM131.25 234.375C167.4703125 234.375 196.875 204.9703125 196.875 168.75S167.4703125 103.125 131.25 103.125S65.625 132.5296875 65.625 168.75S95.0296875 234.375 131.25 234.375z" />
    <glyph glyph-name="048-share-1"
      unicode="&#xF130;"
      horiz-adv-x="300" d="M198.46875 231.590625C197.428125 235.471875 196.875 239.5453125 196.875 243.75C196.875 269.6203125 217.8796875 290.625 243.75 290.625S290.625 269.6203125 290.625 243.75S269.6203125 196.875 243.75 196.875C228.7875 196.875 215.45625 203.9015625 206.86875 214.828125L101.53125 162.159375C102.571875 158.278125 103.125 154.2046875 103.125 150S102.571875 141.721875 101.53125 137.840625L206.86875 85.171875C215.45625 96.0984375 228.7875 103.125 243.75 103.125C269.6203125 103.125 290.625 82.1203125 290.625 56.25S269.6203125 9.375 243.75 9.375S196.875 30.3796875 196.875 56.25C196.875 60.4546875 197.428125 64.528125 198.46875 68.409375L93.13125 121.078125C84.54375 110.1515625 71.2125 103.125 56.25 103.125C30.3796875 103.125 9.375 124.1296875 9.375 150S30.3796875 196.875 56.25 196.875C71.2125 196.875 84.54375 189.8484375 93.13125 178.921875zM243.75 84.375C259.275 84.375 271.875 71.7703125 271.875 56.25S259.275 28.125 243.75 28.125C228.2296875 28.125 215.625 40.7296875 215.625 56.25S228.2296875 84.375 243.75 84.375zM56.25 178.125C71.775 178.125 84.375 165.5203125 84.375 150S71.775 121.875 56.25 121.875C40.7296875 121.875 28.125 134.4796875 28.125 150S40.7296875 178.125 56.25 178.125zM243.75 271.875C259.275 271.875 271.875 259.2703125 271.875 243.75S259.275 215.625 243.75 215.625C228.2296875 215.625 215.625 228.2296875 215.625 243.75S228.2296875 271.875 243.75 271.875z" />
    <glyph glyph-name="049-smartphone"
      unicode="&#xF131;"
      horiz-adv-x="300" d="M234.375 262.5C234.375 278.0203125 221.775 290.625 206.25 290.625H93.75C78.2296875 290.625 65.625 278.0203125 65.625 262.5V37.5C65.625 21.9796875 78.2296875 9.375 93.75 9.375H206.25C221.775 9.375 234.375 21.9796875 234.375 37.5zM215.625 48.4734375C212.690625 47.4375 209.5359375 46.875 206.25 46.875C177.43125 46.875 122.56875 46.875 93.75 46.875C90.4640625 46.875 87.309375 47.4375 84.375 48.4734375V37.5C84.375 32.325 88.575 28.125 93.75 28.125H206.25C211.425 28.125 215.625 32.325 215.625 37.5zM215.625 75V262.5C215.625 267.675 211.425 271.875 206.25 271.875H93.75C88.575 271.875 84.375 267.675 84.375 262.5V75C84.375 69.8203125 88.575 65.625 93.75 65.625H206.25C211.4296875 65.625 215.625 69.8203125 215.625 75zM131.25 234.375H168.75C173.925 234.375 178.125 238.575 178.125 243.75S173.925 253.125 168.75 253.125H131.25C126.075 253.125 121.875 248.925 121.875 243.75S126.075 234.375 131.25 234.375z" />
    <glyph glyph-name="050-duplicate"
      unicode="&#xF132;"
      horiz-adv-x="300" d="M271.875 262.5V75C271.875 49.1109375 250.8890625 28.125 225 28.125C153.0140625 28.125 37.5 28.125 37.5 28.125C32.325 28.125 28.125 23.925 28.125 18.75S32.325 9.375 37.5 9.375H225C261.24375 9.375 290.625 38.75625 290.625 75C290.625 146.9859375 290.625 262.5 290.625 262.5C290.625 267.675 286.425 271.875 281.25 271.875S271.875 267.675 271.875 262.5zM253.125 262.5C253.125 278.0203125 240.525 290.625 225 290.625H37.5C21.9796875 290.625 9.375 278.0203125 9.375 262.5V75C9.375 59.4796875 21.9796875 46.875 37.5 46.875H225C240.525 46.875 253.125 59.4796875 253.125 75zM234.375 262.5V75C234.375 69.825 230.175 65.625 225 65.625H37.5C32.325 65.625 28.125 69.825 28.125 75V262.5C28.125 267.675 32.325 271.875 37.5 271.875H225C230.175 271.875 234.375 267.675 234.375 262.5z" />
    <glyph glyph-name="051-home-1"
      unicode="&#xF133;"
      horiz-adv-x="300" d="M13.303125 195.1265625C9.984375 192.759375 8.578125 188.521875 9.8203125 184.640625C11.0671875 180.759375 14.6765625 178.125 18.75 178.125H37.5C42.6796875 178.125 46.875 173.9296875 46.875 168.75V37.5C46.875 21.965625 59.465625 9.375 75 9.375H225C240.534375 9.375 253.125 21.965625 253.125 37.5C253.125 69.965625 253.125 136.284375 253.125 168.75C253.125 173.9296875 257.325 178.125 262.5 178.125H281.25C285.3234375 178.125 288.9328125 180.759375 290.1796875 184.640625C291.421875 188.521875 290.015625 192.759375 286.7015625 195.1265625L155.4515625 288.8765625000001C152.1890625 291.20625 147.8109375 291.20625 144.553125 288.8765625000001L13.303125 195.1265625zM253.8796875 195.5296875L150 269.728125L46.1203125 195.5296875C57.4359375 191.8875 65.625 181.275 65.625 168.75V37.5C65.625 32.3203125 69.825 28.125 75 28.125H225C230.1796875 28.125 234.375 32.3203125 234.375 37.5C234.375 69.965625 234.375 136.284375 234.375 168.75C234.375 181.275 242.5640625 191.8875 253.8796875 195.5296875zM196.875 150C196.875 155.1796875 192.6796875 159.375 187.5 159.375H112.5C107.325 159.375 103.125 155.1796875 103.125 150V75C103.125 69.8203125 107.325 65.625 112.5 65.625H187.5C192.6796875 65.625 196.875 69.8203125 196.875 75zM121.875 140.625V84.375H178.125V140.625z" />
    <glyph glyph-name="052-globe"
      unicode="&#xF134;"
      horiz-adv-x="300" d="M150 290.625C227.615625 290.625 290.625 227.6109375 290.625 150S227.615625 9.375 150 9.375C72.3890625 9.375 9.375 72.3890625 9.375 150S72.3890625 290.625 150 290.625zM183.09375 65.625H116.90625C119.30625 59.4234375 121.978125 53.7890625 124.884375 48.8203125C132.1359375 36.4078125 140.325 28.125 150 28.125S167.8640625 36.4078125 175.1203125 48.8203125C178.021875 53.7890625 180.69375 59.4234375 183.09375 65.625zM237.9140625 65.625H202.978125C199.6078125 55.678125 195.675 46.8328125 191.30625 39.35625C190.25625 37.5609375 189.178125 35.840625 188.071875 34.2C207.215625 40.4953125 224.26875 51.4125 237.9140625 65.625zM97.0265625 65.625H62.0859375C75.73125 51.4125 92.784375 40.4953125 111.928125 34.2C110.821875 35.840625 109.74375 37.5609375 108.69375 39.35625C104.325 46.8328125 100.3921875 55.678125 97.0265625 65.625zM84.515625 140.625H28.48125C30.0515625 120.0234375 36.7546875 100.8421875 47.30625 84.375H91.6734375C87.6515625 101.2828125 85.115625 120.3515625 84.515625 140.625zM196.7296875 140.625H103.2703125C103.903125 120.1171875 106.603125 100.96875 110.9203125 84.375H189.0796875C193.396875 100.96875 196.096875 120.1171875 196.7296875 140.625zM271.51875 140.625H215.484375C214.884375 120.346875 212.3484375 101.278125 208.33125 84.375H252.69375C263.2453125 100.846875 269.9484375 120.0234375 271.51875 140.625zM91.6734375 215.625H47.30625C36.7546875 199.153125 30.0515625 179.9765625 28.48125 159.375H84.515625C85.115625 179.653125 87.6515625 198.721875 91.6734375 215.625zM189.0796875 215.625H110.9203125C106.603125 199.03125 103.903125 179.8828125 103.2703125 159.375H196.7296875C196.096875 179.8828125 193.396875 199.03125 189.0796875 215.625zM252.69375 215.625H208.33125C212.3484375 198.7171875 214.884375 179.6484375 215.484375 159.375H271.51875C269.9484375 179.9765625 263.2453125 199.1578125 252.6937500000001 215.625zM111.928125 265.8C92.7890625 259.5046875 75.7359375 248.5875 62.0859375 234.375H97.0265625C100.3921875 244.321875 104.325 253.1671875 108.69375 260.64375C109.74375 262.4390625 110.821875 264.159375 111.928125 265.8zM150 271.875C140.325 271.875 132.1359375 263.5921875 124.884375 251.1796875C121.978125 246.2109375 119.30625 240.5765625 116.90625 234.375H183.09375C180.69375 240.5765625 178.021875 246.2109375 175.1203125 251.1796875C167.8640625 263.5921875 159.675 271.875 150 271.875zM188.071875 265.8C189.178125 264.159375 190.25625 262.4390625 191.30625 260.64375C195.675 253.1671875 199.6078125 244.321875 202.978125 234.375H237.9140625C224.26875 248.5875 207.215625 259.5046875 188.071875 265.8z" />
    <glyph glyph-name="053-file"
      unicode="&#xF135;"
      horiz-adv-x="300" d="M253.125 225C253.125 227.484375 252.1359375 229.8703125 250.378125 231.628125L194.128125 287.878125C192.3703125 289.6359375 189.9890625 290.625 187.5 290.625H75C67.5421875 290.625 60.3890625 287.6625 55.1109375 282.3890625C49.8375 277.1109375 46.875 269.9578125 46.875 262.5V37.5C46.875 21.965625 59.465625 9.375 75 9.375H225C232.4578125 9.375 239.6109375 12.3375 244.8890625 17.6109375C250.1625 22.8890625 253.125 30.0421875 253.125 37.5C253.125 88.3359375 253.125 225 253.125 225zM178.125 271.875H75C72.515625 271.875 70.1296875 270.8859375 68.371875 269.128125S65.625 264.984375 65.625 262.5V37.5C65.625 32.3203125 69.8203125 28.125 75 28.125H225C227.4890625 28.125 229.8703125 29.1140625 231.628125 30.871875S234.375 35.015625 234.375 37.5V215.625H187.5C182.3203125 215.625 178.125 219.8203125 178.125 225zM196.875 234.375H221.11875L196.875 258.61875z" />
    <glyph glyph-name="054-flashlight"
      unicode="&#xF136;"
      horiz-adv-x="300" d="M68.8734375 122.5453125C56.2875 125.34375 46.875 136.5703125 46.875 150C46.875 164.925 46.875 185.184375 46.875 196.875C46.875 207.2296875 55.2703125 215.625 65.625 215.625H234.375C244.7296875 215.625 253.125 207.2296875 253.125 196.875V150C253.125 136.5703125 243.7125 125.34375 231.13125 122.5453125L215.625 91.5375V18.75C215.625 13.5703125 211.4296875 9.375 206.25 9.375H93.75C88.575 9.375 84.375 13.5703125 84.375 18.75V91.5375zM103.125 84.375V28.125H196.875V84.375zM209.83125 121.875H90.16875L99.54375 103.125H200.45625zM225 140.625C230.1796875 140.625 234.375 144.8203125 234.375 150V196.875H65.625V150C65.625 144.8203125 69.825 140.625 75 140.625zM140.625 281.25V243.75C140.625 238.575 144.825 234.375 150 234.375S159.375 238.575 159.375 243.75V281.25C159.375 286.425 155.175 290.625 150 290.625S140.625 286.425 140.625 281.25zM65.625 281.25V243.75C65.625 238.575 69.825 234.375 75 234.375S84.375 238.575 84.375 243.75V281.25C84.375 286.425 80.175 290.625 75 290.625S65.625 286.425 65.625 281.25zM178.125 281.25V243.75C178.125 238.575 182.325 234.375 187.5 234.375S196.875 238.575 196.875 243.75V281.25C196.875 286.425 192.675 290.625 187.5 290.625S178.125 286.425 178.125 281.25zM103.125 281.25V243.75C103.125 238.575 107.325 234.375 112.5 234.375S121.875 238.575 121.875 243.75V281.25C121.875 286.425 117.675 290.625 112.5 290.625S103.125 286.425 103.125 281.25zM215.625 281.25V243.75C215.625 238.575 219.825 234.375 225 234.375S234.375 238.575 234.375 243.75V281.25C234.375 286.425 230.175 290.625 225 290.625S215.625 286.425 215.625 281.25z" />
    <glyph glyph-name="055-folder"
      unicode="&#xF137;"
      horiz-adv-x="300" d="M28.125 232.771875V243.75C28.125 251.2078125 31.0875 258.3609375 36.3609375 263.6390625C41.6390625 268.9125 48.7921875 271.875 56.25 271.875H119.6625C130.3171875 271.875 140.053125 265.85625 144.815625 256.3265625L155.79375 234.375H262.5C278.025 234.375 290.625 221.7703125 290.625 206.25V56.25C290.625 40.7296875 278.025 28.125 262.5 28.125H37.5C21.9796875 28.125 9.375 40.7296875 9.375 56.25V206.25C9.375 218.484375 17.2078125 228.909375 28.125 232.771875zM262.5 215.625H37.5C32.325 215.625 28.125 211.425 28.125 206.25V56.25C28.125 51.075 32.325 46.875 37.5 46.875H262.5C267.675 46.875 271.875 51.075 271.875 56.25V206.25C271.875 211.425 267.675 215.625 262.5 215.625zM134.83125 234.375L128.0484375 247.940625C126.459375 251.11875 123.2109375 253.125 119.6625 253.125C103.809375 253.125 75.178125 253.125 56.25 253.125C53.765625 253.125 51.3796875 252.1359375 49.621875 250.378125S46.875 246.234375 46.875 243.75V234.375zM243.75 196.875H56.25C51.075 196.875 46.875 192.675 46.875 187.5S51.075 178.125 56.25 178.125H243.75C248.925 178.125 253.125 182.325 253.125 187.5S248.925 196.875 243.75 196.875z" />
    <glyph glyph-name="056-expand"
      unicode="&#xF138;"
      horiz-adv-x="300" d="M121.875 215.625H93.75C89.9578125 215.625 86.540625 217.9078125 85.0875 221.4140625C83.6390625 224.915625 84.440625 228.946875 87.121875 231.628125L143.371875 287.878125C147.0328125 291.5390625 152.9671875 291.5390625 156.628125 287.878125L212.878125 231.628125C215.559375 228.946875 216.3609375 224.915625 214.9125 221.4140625C213.459375 217.9078125 210.0421875 215.625 206.25 215.625H178.125V206.25C178.125 203.765625 177.1359375 201.3796875 175.378125 199.621875L137.878125 162.121875C135.196875 159.440625 131.165625 158.6390625 127.6640625 160.0875C124.1578125 161.540625 121.875 164.9578125 121.875 168.75zM183.61875 234.375L150 267.99375L116.38125 234.375H121.875C132.2296875 234.375 140.625 225.9796875 140.625 215.625V191.38125L159.375 210.13125V215.625C159.375 225.9796875 167.7703125 234.375 178.125 234.375zM84.375 121.875V93.75C84.375 89.9578125 82.0921875 86.540625 78.5859375 85.0875C75.084375 83.6390625 71.053125 84.440625 68.371875 87.121875L12.121875 143.371875C8.4609375 147.0328125 8.4609375 152.9671875 12.121875 156.628125L68.371875 212.878125C71.053125 215.559375 75.084375 216.3609375 78.5859375 214.9125C82.0921875 213.459375 84.375 210.0421875 84.375 206.25V178.125H93.75C96.234375 178.125 98.6203125 177.1359375 100.378125 175.378125L137.878125 137.878125C140.559375 135.196875 141.3609375 131.165625 139.9125 127.6640625C138.459375 124.1578125 135.0421875 121.875 131.25 121.875zM65.625 183.61875L32.00625 150L65.625 116.38125V121.875C65.625 132.2296875 74.0203125 140.625 84.375 140.625H108.61875L89.86875 159.375H84.375C74.0203125 159.375 65.625 167.7703125 65.625 178.125zM215.625 121.875H206.25C203.765625 121.875 201.3796875 122.8640625 199.621875 124.621875L162.121875 162.121875C159.440625 164.803125 158.6390625 168.834375 160.0875 172.3359375C161.540625 175.8421875 164.9578125 178.125 168.75 178.125H215.625V206.25C215.625 210.0421875 217.9078125 213.459375 221.4140625 214.9125C224.915625 216.3609375 228.946875 215.559375 231.628125 212.878125L287.878125 156.628125C291.5390625 152.9671875 291.5390625 147.0328125 287.878125 143.371875L231.628125 87.121875C228.946875 84.440625 224.915625 83.6390624999999 221.4140625 85.0875C217.9078125 86.540625 215.625 89.9578125 215.625 93.75zM234.375 183.61875V178.125C234.375 167.7703125 225.9796875 159.375 215.625 159.375H191.38125L210.13125 140.625H215.625C225.9796875 140.625 234.375 132.2296875 234.375 121.875V116.38125L267.99375 150zM121.875 84.375V93.75C121.875 96.234375 122.8640625 98.6203125 124.621875 100.378125L162.121875 137.878125C164.803125 140.559375 168.834375 141.3609375 172.3359375 139.9125C175.8421875 138.459375 178.125 135.0421875 178.125 131.25V84.375H206.25C210.0421875 84.375 213.459375 82.0921875 214.9125 78.5859375C216.3609375 75.084375 215.559375 71.053125 212.878125 68.371875L156.628125 12.121875C152.9671875 8.4609375 147.0328125 8.4609375 143.371875 12.121875L87.121875 68.371875C84.440625 71.053125 83.6390625 75.084375 85.0875 78.5859375C86.540625 82.0921875 89.9578125 84.375 93.75 84.375zM159.375 108.61875L140.625 89.86875V84.375C140.625 74.0203125 132.2296875 65.625 121.875 65.625H116.38125L150 32.00625L183.61875 65.625H178.125C167.7703125 65.625 159.375 74.0203125 159.375 84.375z" />
    <glyph glyph-name="057-image"
      unicode="&#xF139;"
      horiz-adv-x="300" d="M290.625 225C290.625 240.5203125 278.025 253.125 262.5 253.125H37.5C21.9796875 253.125 9.375 240.5203125 9.375 225V75C9.375 59.4796875 21.9796875 46.875 37.5 46.875H262.5C278.025 46.875 290.625 59.4796875 290.625 75zM271.875 144.984375L230.8359375 172.340625C227.53125 174.54375 223.190625 174.4265625 220.0125 172.040625C205.95 161.49375 181.2515625 142.96875 166.875 132.1875C156.8765625 124.6875 143.1234375 124.6875 133.125 132.1875C118.7484375 142.96875 94.05 161.49375 79.9875 172.040625C76.809375 174.4265625 72.46875 174.54375 69.1640625 172.340625L28.125 144.984375V75C28.125 69.825 32.325 65.625 37.5 65.625H262.5C267.675 65.625 271.875 69.825 271.875 75zM271.875 167.5171875V225C271.875 230.175 267.675 234.375 262.5 234.375H37.5C32.325 234.375 28.125 230.175 28.125 225V167.5171875L58.7625 187.940625C68.6859375 194.5546875 81.6984375 194.19375 91.2375 187.040625C105.3 176.49375 129.9984375 157.96875 144.375 147.1875C147.7078125 144.6890625 152.2921875 144.6890625 155.625 147.1875C170.0015625 157.96875 194.7 176.49375 208.7625 187.040625C218.3015625 194.19375 231.31875 194.5546875 241.2375 187.940625zM131.25 187.5A18.75 18.75 0 0 1 168.75 187.5A18.75 18.75 0 0 1 131.25 187.5" />
    <glyph glyph-name="058-zoom-out"
      unicode="&#xF13A;"
      horiz-adv-x="300" d="M131.25 253.125C84.684375 253.125 46.875 215.315625 46.875 168.75S84.684375 84.375 131.25 84.375C177.8203125 84.375 215.625 122.184375 215.625 168.75S177.8203125 253.125 131.25 253.125zM131.25 234.375C167.4703125 234.375 196.875 204.9703125 196.875 168.75S167.4703125 103.125 131.25 103.125S65.625 132.5296875 65.625 168.75S95.0296875 234.375 131.25 234.375zM199.9171875 68.071875C180.35625 54.6984375 156.7078125 46.875 131.25 46.875C63.984375 46.875 9.375 101.484375 9.375 168.75S63.984375 290.625 131.25 290.625S253.125 236.015625 253.125 168.75C253.125 143.2921875 245.3015625 119.64375 231.928125 100.0828125L287.878125 44.128125C291.5390625 40.4671875 291.5390625 34.5328125 287.878125 30.871875L269.128125 12.121875C265.4671875 8.4609375 259.5328125000001 8.4609375 255.871875 12.121875zM220.115625 85.378125L219.95625 85.209375L219.9 85.1484375C218.259375 83.4140625 216.571875 81.721875 214.8328125 80.0859375L214.621875 79.884375L262.5 32.00625L267.99375 37.5zM212.353125 105.075C226.14375 122.6109375 234.375 144.7265625 234.375 168.75C234.375 225.665625 188.165625 271.875 131.25 271.875S28.125 225.665625 28.125 168.75S74.334375 65.625 131.25 65.625C155.2734375 65.625 177.3890625 73.85625 194.925 87.6515625L195.0515625 87.75C201.4359375 92.7890625 207.2109375 98.5640625 212.25 104.9484375C212.2828125 104.990625 212.315625 105.0328125 212.353125 105.075zM168.75 178.125H93.75C88.575 178.125 84.375 173.925 84.375 168.75S88.575 159.375 93.75 159.375H168.75C173.925 159.375 178.125 163.575 178.125 168.75S173.925 178.125 168.75 178.125z" />
    <glyph glyph-name="059-zoom-in"
      unicode="&#xF13B;"
      horiz-adv-x="300" d="M199.9171875 68.071875C180.35625 54.6984375 156.7078125 46.875 131.25 46.875C63.984375 46.875 9.375 101.484375 9.375 168.75S63.984375 290.625 131.25 290.625S253.125 236.015625 253.125 168.75C253.125 143.2921875 245.3015625 119.64375 231.928125 100.0828125L287.878125 44.128125C291.5390625 40.4671875 291.5390625 34.5328125 287.878125 30.871875L269.128125 12.121875C265.4671875 8.4609375 259.5328125000001 8.4609375 255.871875 12.121875zM220.115625 85.378125L219.9421875 85.190625C218.221875 83.3671875 216.45 81.6 214.621875 79.884375L262.5 32.00625L267.99375 37.5zM212.3578125 105.084375C226.1484375 122.6203125 234.375 144.73125 234.375 168.75C234.375 225.665625 188.165625 271.875 131.25 271.875S28.125 225.665625 28.125 168.75S74.334375 65.625 131.25 65.625C155.26875 65.625 177.3796875 73.85625 194.915625 87.6421875C194.9625 87.6796875 195.0046875 87.7171875 195.0515625 87.75C201.4359375 92.7890625 207.2109375 98.5640625 212.25 104.9484375C212.2828125 104.9953125 212.3203125 105.0375 212.3578125 105.084375zM131.25 253.125C84.684375 253.125 46.875 215.315625 46.875 168.75S84.684375 84.375 131.25 84.375C177.8203125 84.375 215.625 122.184375 215.625 168.75S177.8203125 253.125 131.25 253.125zM131.25 234.375C167.4703125 234.375 196.875 204.9703125 196.875 168.75S167.4703125 103.125 131.25 103.125S65.625 132.5296875 65.625 168.75S95.0296875 234.375 131.25 234.375zM121.875 178.125V206.25C121.875 211.425 126.075 215.625 131.25 215.625S140.625 211.425 140.625 206.25V178.125H168.75C173.925 178.125 178.125 173.925 178.125 168.75S173.925 159.375 168.75 159.375H140.625V131.25C140.625 126.075 136.425 121.875 131.25 121.875S121.875 126.075 121.875 131.25V159.375H93.75C88.575 159.375 84.375 163.575 84.375 168.75S88.575 178.125 93.75 178.125z" />
    <glyph glyph-name="060-profile"
      unicode="&#xF13C;"
      horiz-adv-x="300" d="M215.625 262.5C215.625 269.9578125 212.6625 277.1109375 207.3890625 282.3890625C202.1109375 287.6625 194.9578125 290.625 187.5 290.625C166.6921875 290.625 133.3078125 290.625 112.5 290.625C105.0421875 290.625 97.8890625 287.6625 92.6109375 282.3890625C87.3375 277.1109375 84.375 269.9578125 84.375 262.5V225C84.375 188.75625 113.75625 159.375 150 159.375C186.24375 159.375 215.625 188.75625 215.625 225zM196.875 262.5V225C196.875 199.1109375 175.8890625 178.125 150 178.125C124.1109375 178.125 103.125 199.1109375 103.125 225V262.5C103.125 264.984375 104.1140625 267.3703125 105.871875 269.128125S110.015625 271.875 112.5 271.875H187.5C189.9890625 271.875 192.3703125 270.8859375 194.128125 269.128125S196.875 264.984375 196.875 262.5zM271.875 18.75C271.875 86.0578125 217.3078125 140.625 150 140.625C82.6921875 140.625 28.125 86.0578125 28.125 18.75C28.125 13.5703125 32.3203125 9.375 37.5 9.375H262.5093750000001C264.9937500000001 9.375 267.375 10.3640625 269.1328125 12.1171875C270.890625 13.875 271.875 16.25625 271.875 18.740625C271.875 18.7453125 271.875 18.75 271.875 18.75zM252.703125 28.125C247.96875 80.6859375 203.79375 121.875 150 121.875C96.20625 121.875 52.03125 80.6859375 47.296875 28.125z" />
    <glyph glyph-name="061-calendar"
      unicode="&#xF13D;"
      horiz-adv-x="300" d="M215.625 253.125V262.5C215.625 267.675 219.825 271.875 225 271.875S234.375 267.675 234.375 262.5V253.125H262.5H262.6734375C267.825 253.0921875 272.6484375 251.6765625 276.7875 249.225C278.8125 248.0296875 280.6968750000001 246.5765625 282.3890625 244.8890625C284.0765625 243.196875 285.5296875 241.3125 286.725 239.2875C289.1765625 235.1484375 290.5921875 230.325 290.625 225.1734375V225V56.25C290.625 40.7296875 278.025 28.125 262.5 28.125H37.5C21.9796875 28.125 9.375 40.7296875 9.375 56.25V225V225.1734375C9.4078125 230.325 10.8234375 235.14375 13.275 239.2875C14.4703125 241.3125 15.9234375 243.196875 17.6109375 244.8890625C19.303125 246.5765625 21.1875 248.0296875 23.2125 249.225C27.3515625 251.6765625 32.175 253.0921875 37.3265625 253.125H37.546875H65.625V262.5C65.625 267.675 69.825 271.875 75 271.875S84.375 267.675 84.375 262.5V253.125H140.625V262.5C140.625 267.675 144.825 271.875 150 271.875S159.375 267.675 159.375 262.5V253.125zM271.875 178.125H28.125V56.25C28.125 51.075 32.325 46.875 37.5 46.875H262.5C267.675 46.875 271.875 51.075 271.875 56.25zM37.5 234.375H37.3828125C35.7328125 234.3515625 34.134375 233.9015625 32.7375 233.0765625C31.3734375 232.2703125 30.234375 231.1265625 29.4234375 229.7625C28.5984375 228.365625 28.1484375 226.7671875 28.125 225.1171875V225V196.875H271.875V225V225.1171875C271.85625 226.7671875 271.4015625 228.365625 270.5765625 229.7625C269.7703125 231.1265625 268.6265625000001 232.2703125 267.2625 233.0765625C265.865625 233.9015625 264.2671875 234.3515625 262.6171875 234.375H262.5H234.375V225C234.375 219.825 230.175 215.625 225 215.625S215.625 219.825 215.625 225V234.375H159.375V225C159.375 219.825 155.175 215.625 150 215.625S140.625 219.825 140.625 225V234.375H84.375V225C84.375 219.825 80.175 215.625 75 215.625S65.625 219.825 65.625 225V234.375zM56.25 140.625H75C80.175 140.625 84.375 144.825 84.375 150S80.175 159.375 75 159.375H56.25C51.075 159.375 46.875 155.175 46.875 150S51.075 140.625 56.25 140.625zM168.75 140.625H187.5C192.675 140.625 196.875 144.825 196.875 150S192.675 159.375 187.5 159.375H168.75C163.575 159.375 159.375 155.175 159.375 150S163.575 140.625 168.75 140.625zM56.25 103.125H75C80.175 103.125 84.375 107.325 84.375 112.5S80.175 121.875 75 121.875H56.25C51.075 121.875 46.875 117.675 46.875 112.5S51.075 103.125 56.25 103.125zM168.75 103.125H187.5C192.675 103.125 196.875 107.325 196.875 112.5S192.675 121.875 187.5 121.875H168.75C163.575 121.875 159.375 117.675 159.375 112.5S163.575 103.125 168.75 103.125zM56.25 65.625H75C80.175 65.625 84.375 69.825 84.375 75S80.175 84.375 75 84.375H56.25C51.075 84.375 46.875 80.175 46.875 75S51.075 65.625 56.25 65.625zM168.75 65.625H187.5C192.675 65.625 196.875 69.825 196.875 75S192.675 84.375 187.5 84.375H168.75C163.575 84.375 159.375 80.175 159.375 75S163.575 65.625 168.75 65.625zM112.5 140.625H131.25C136.425 140.625 140.625 144.825 140.625 150S136.425 159.375 131.25 159.375H112.5C107.325 159.375 103.125 155.175 103.125 150S107.325 140.625 112.5 140.625zM225 140.625H243.75C248.925 140.625 253.125 144.825 253.125 150S248.925 159.375 243.75 159.375H225C219.825 159.375 215.625 155.175 215.625 150S219.825 140.625 225 140.625zM112.5 103.125H131.25C136.425 103.125 140.625 107.325 140.625 112.5S136.425 121.875 131.25 121.875H112.5C107.325 121.875 103.125 117.675 103.125 112.5S107.325 103.125 112.5 103.125zM225 103.125H243.75C248.925 103.125 253.125 107.325 253.125 112.5S248.925 121.875 243.75 121.875H225C219.825 121.875 215.625 117.675 215.625 112.5S219.825 103.125 225 103.125zM112.5 65.625H131.25C136.425 65.625 140.625 69.825 140.625 75S136.425 84.375 131.25 84.375H112.5C107.325 84.375 103.125 80.175 103.125 75S107.325 65.625 112.5 65.625zM225 65.625H243.75C248.925 65.625 253.125 69.825 253.125 75S248.925 84.375 243.75 84.375H225C219.825 84.375 215.625 80.175 215.625 75S219.825 65.625 225 65.625z" />
    <glyph glyph-name="062-spectrum"
      unicode="&#xF13E;"
      horiz-adv-x="300" d="M253.40625 152.278125L246.2625 123.703125L234.28125 207.58125A9.375 9.375 0 0 1 225.1125 215.625A9.215625 9.215625 0 0 1 215.7375 207.796875L203.184375 132.525L196.378125 152.9625A9.375 9.375 0 0 1 178.2937500000001 151.8375L168.75 104.0625L140.4375 245.625A9.375 9.375 0 0 1 122.0625 245.625L110.23125 186.496875L102.646875 209.25A9.375 9.375 0 0 1 84.50625 207.834375L75.7125 155.090625L65.53125 226.33125A9.375 9.375 0 0 1 47.15625 227.26875L30.178125 159.375H9.375V140.625H37.5A9.375 9.375 0 0 1 46.59375 147.721875L53.7375 176.25L65.71875 92.41875A9.375 9.375 0 0 1 74.8875 84.375H75A9.375 9.375 0 0 1 84.24375 92.203125L96.796875 167.475L103.603125 147.0375A9.375 9.375 0 0 1 121.6875 148.1625L131.25 195.9375L159.5625 54.375A9.375 9.375 0 0 1 177.9375 54.375L189.76875 113.503125L197.353125 90.75A9.375 9.375 0 0 1 215.49375 92.165625L224.2875 144.909375L234.46875 73.659375A9.375 9.375 0 0 1 243.2625 65.625A9.225 9.225 0 0 1 252.84375 72.7125L269.821875 140.625H290.625V159.375H262.5A9.375 9.375 0 0 1 253.40625 152.278125z" />
    <glyph glyph-name="063-favorite"
      unicode="&#xF13F;"
      horiz-adv-x="300" d="M281.25 196.875H193.846875L158.709375 284.7375A9.375 9.375 0 0 1 141.290625 284.7375L106.153125 196.875H18.75A9.375 9.375 0 0 1 13.125 180L82.715625 127.8L47.353125 21.7125A9.375 9.375 0 0 1 62.109375 11.4L150 81.740625L237.890625 11.428125A9.375 9.375 0 0 1 252.646875 21.740625L217.284375 127.8L286.875 180A9.375 9.375 0 0 1 281.25 196.875zM200.625 138.75A9.375 9.375 0 0 1 197.353125 128.2875L224.8125 45.9375L155.859375 101.109375A9.375 9.375 0 0 1 144.140625 101.109375L75.1875 45.9375L102.646875 128.325A9.375 9.375 0 0 1 99.375 138.75L46.875 178.125H112.5A9.375 9.375 0 0 1 121.209375 184.0125L150 256.0125L178.790625 184.0125A9.375 9.375 0 0 1 187.5 178.125H253.125z" />
    <glyph glyph-name="064-settings"
      unicode="&#xF140;"
      horiz-adv-x="300" d="M121.875 243.75A9.375 9.375 0 0 1 131.25 234.375H168.75A9.375 9.375 0 0 1 178.125 243.75V253.125H290.625V271.875H178.125V281.25A9.375 9.375 0 0 1 168.75 290.625H131.25A9.375 9.375 0 0 1 121.875 281.25V271.875H9.375V253.125H121.875zM159.375 271.875V253.125H140.625V271.875zM28.125 168.75A9.375 9.375 0 0 1 37.5 159.375H75A9.375 9.375 0 0 1 84.375 168.75V178.125H290.625V196.875H84.375V206.25A9.375 9.375 0 0 1 75 215.625H37.5A9.375 9.375 0 0 1 28.125 206.25V196.875H9.375V178.125H28.125zM65.625 196.875V178.125H46.875V196.875zM196.875 93.75A9.375 9.375 0 0 1 206.25 84.375H243.75A9.375 9.375 0 0 1 253.125 93.75V103.125H290.625V121.875H253.125V131.25A9.375 9.375 0 0 1 243.75 140.625H206.25A9.375 9.375 0 0 1 196.875 131.25V121.875H9.375V103.125H196.875zM234.375 121.875V103.125H215.625V121.875zM84.375 18.75A9.375 9.375 0 0 1 93.75 9.375H131.25A9.375 9.375 0 0 1 140.625 18.75V28.125H290.625V46.875H140.625V56.25A9.375 9.375 0 0 1 131.25 65.625H93.75A9.375 9.375 0 0 1 84.375 56.25V46.875H9.375V28.125H84.375zM121.875 46.875V28.125H103.125V46.875z" />
    <glyph glyph-name="065-spectrum-1"
      unicode="&#xF141;"
      horiz-adv-x="300" d="M65.625 234.375H84.375V65.625H65.625zM103.125 215.625H121.875V84.375H103.125zM140.625 271.875H159.375V28.125H140.625zM178.125 215.625H196.875V84.375H178.125zM215.625 234.375H234.375V65.625H215.625zM28.125 103.125H46.875V196.875H28.125V159.375H9.375V140.625H28.125zM271.875 196.875H253.125V103.125H271.875V140.625H290.625V159.375H271.875z" />
    <glyph glyph-name="066-options"
      unicode="&#xF142;"
      horiz-adv-x="300" d="M150 290.625A140.625 140.625 0 1 1 290.625 150A140.784375 140.784375 0 0 1 150 290.625zM150 28.125A121.875 121.875 0 1 0 271.875 150A122.015625 122.015625 0 0 0 150 28.125zM93.75 178.125H56.25A9.375 9.375 0 0 1 46.875 168.75V131.25A9.375 9.375 0 0 1 56.25 121.875H93.75A9.375 9.375 0 0 1 103.125 131.25V168.75A9.375 9.375 0 0 1 93.75 178.125zM84.375 140.625H65.625V159.375H84.375zM168.75 178.125H131.25A9.375 9.375 0 0 1 121.875 168.75V131.25A9.375 9.375 0 0 1 131.25 121.875H168.75A9.375 9.375 0 0 1 178.125 131.25V168.75A9.375 9.375 0 0 1 168.75 178.125zM159.375 140.625H140.625V159.375H159.375zM196.875 168.75V131.25A9.375 9.375 0 0 1 206.25 121.875H243.75A9.375 9.375 0 0 1 253.125 131.25V168.75A9.375 9.375 0 0 1 243.75 178.125H206.25A9.375 9.375 0 0 1 196.875 168.75zM215.625 159.375H234.375V140.625H215.625z" />
    <glyph glyph-name="067-love"
      unicode="&#xF143;"
      horiz-adv-x="300" d="M277.03125 238.978125C260.8125 260.559375 241.790625 271.63125 220.490625 271.875H219.778125C188.934375 271.875 162.365625 248.728125 150 235.875C137.625 248.728125 111.065625 271.875 80.2125 271.875H79.509375C58.2 271.63125 39.196875 260.559375 22.70625 238.603125A77.484375 77.484375 0 0 1 32.615625 139.959375L143.4375 30.825A9.375 9.375 0 0 1 156.5625 30.825L267.375 139.959375A77.60625 77.60625 0 0 1 277.03125 238.978125zM254.23125 153.31875L150 50.625L45.76875 153.31875A58.63125 58.63125 0 0 0 37.96875 227.71875C50.484375 244.378125 64.509375 252.928125 79.6875 253.125H80.23125C112.85625 253.125 142.359375 216.3375 142.65 215.9625A9.721875 9.721875 0 0 1 157.36875 215.9625C157.66875 216.3375 187.36875 253.95 220.33125 253.125A53.653125 53.653125 0 0 0 261.7781250000001 228.09375A58.734375 58.734375 0 0 0 254.23125 153.31875z" />
    <glyph glyph-name="068-folder-1"
      unicode="&#xF144;"
      horiz-adv-x="300" d="M262.5 234.375H137.04375L120.9375 266.690625A9.375 9.375 0 0 1 112.5 271.875H37.5A28.125 28.125 0 0 1 9.375 243.75V56.25A28.125 28.125 0 0 1 37.5 28.125H262.5A28.125 28.125 0 0 1 290.625 56.25V206.25A28.125 28.125 0 0 1 262.5 234.375zM37.5 253.125H106.70625L116.08125 234.375H28.125V243.75A9.375 9.375 0 0 0 37.5 253.125zM271.875 56.25A9.375 9.375 0 0 0 262.5 46.875H37.5A9.375 9.375 0 0 0 28.125 56.25V215.625H262.5A9.375 9.375 0 0 0 271.875 206.25zM191.690625 177.140625L154.190625 195.890625A9.375 9.375 0 0 1 140.625 187.5V120.15A27.80625 27.80625 0 0 1 131.25 121.875A28.125 28.125 0 1 1 159.375 93.75V134.83125L183.309375 122.8125A9.375 9.375 0 0 1 196.875 131.25V168.75A9.375 9.375 0 0 1 191.690625 177.140625zM131.25 84.375A9.375 9.375 0 1 0 140.625 93.75A9.375 9.375 0 0 0 131.25 84.375zM178.125 146.41875L159.375 155.79375V172.33125L178.125 162.95625z" />
    <glyph glyph-name="069-plus-sign"
      unicode="&#xF145;"
      horiz-adv-x="300" d="M136.27284375 76.78753125H163.72715625V136.27284375H223.21246875V163.72771875H163.72715625V223.21246875H136.27284375V163.72771875H76.78753125V136.27284375H136.27284375zM150 9.375C227.53828125 9.375 290.625 72.4576875 290.625 150C290.625 227.542875 227.53828125 290.625 150 290.625S9.375 227.542875 9.375 150C9.375 72.4576875 72.46171875 9.375 150 9.375zM150 263.17003125C212.398875 263.17003125 263.17003125 212.40290625 263.17003125 150S212.398875 36.82996875 150 36.82996875S36.82996875 87.59709375 36.82996875 150S87.601125 263.17003125 150 263.17003125z" />
    </font>
</defs>
</svg>
